<?xml version="1.0" standalone="no"?>
<!DOCTYPE svg PUBLIC "-//W3C//DTD SVG 1.1//EN" "http://www.w3.org/Graphics/SVG/1.1/DTD/svg11.dtd">
<svg xmlns="http://www.w3.org/2000/svg"><metadata>This SVG WebFont was generated by YouWorkForThem.
Copyright Â© 2018 by Connary Fagen. All rights reserved.</metadata><defs><font horiz-adv-x="532" id="ywftsvg"><font-face ascent="1638" bbox="-470.6 -590 2038 1833" cap-height="1272" descent="-410" font-family="" font-stretch="normal" font-weight="400" panose-1="0 0 5 0 0 0 0 0 0 0" underline-position="0" underline-thickness="0" unicode-range="U+0020-FB02" units-per-em="2048" x-height="924"/><missing-glyph d="M864 1638v-2109h-667v2109h667zM702 1497h-348v-70h138v-77h-140v-70h350v70h-139v77h139v70zM563 1225h-211v-219h350v71h-139v148zM492 1153v-76h-70v76h70zM702 948h-350v-69h140v-78h-140v-70h211v148h139v69zM702 821h-69v-139h-281v-72h350v211zM702 565h-210v-119 h71v50h70v-101h-211v170h-70v-239h350v239zM702 201h-350v-240h350v240zM633 131v-100h-211v100h211zM702 -88h-350v-70h148l-148 -98v-70h350v70h-215l148 98h67v70z" horiz-adv-x="1054"/><glyph d="M51 0v43q84 8 115 30.5t31 78.5v636q0 35 -11.5 47.5t-33.5 12.5h-111v45q86 14 121 34.5t35 67.5q0 199 96 300.5t266 101.5q121 0 193.5 -45t72.5 -115q0 -76 -80 -76q-39 0 -70.5 28t-52 59.5t-59.5 59t-92 27.5q-70 0 -90.5 -49t-20.5 -166v-143q0 -39 20.5 -51.5 t86.5 -12.5h141v-69l-141 4q-66 2 -86.5 -11.5t-20.5 -52.5v-632q0 -55 37 -78t146 -31v-43h-492zM713 0v43q74 8 102.5 30.5t28.5 78.5v577q0 74 -25.5 100.5t-107.5 18.5v39l225 51q72 16 72 -59v-727q0 -55 28.5 -78t102.5 -31v-43h-426z" glyph-name="uniFB01" horiz-adv-x="1189" unicode="fi"/><glyph d="M946 -12q-131 0 -131 145v813q0 186 -72.5 287.5t-212.5 101.5q-106 0 -138 -63.5t-32 -216.5v-78q0 -39 20.5 -51.5t86.5 -12.5h141v-69l-141 4q-66 2 -86.5 -11.5t-20.5 -52.5v-632q0 -55 37 -78t146 -31v-43h-492v43q84 8 115 30.5t31 78.5v636q0 35 -11.5 47.5 t-33.5 12.5h-111v45q86 14 121 34.5t35 67.5v29q0 180 111.5 276.5t285.5 96.5q172 0 278.5 -93.5t106.5 -297.5v-869q0 -88 104 -69v-25q-41 -55 -137 -55z" glyph-name="uniFB02" horiz-adv-x="1132" unicode="fl"/><glyph d="M864 1638v-2109h-667v2109h667zM702 1497h-348v-70h138v-77h-140v-70h350v70h-139v77h139v70zM563 1225h-211v-219h350v71h-139v148zM492 1153v-76h-70v76h70zM702 948h-350v-69h140v-78h-140v-70h211v148h139v69zM702 821h-69v-139h-281v-72h350v211zM702 565h-210v-119 h71v50h70v-101h-211v170h-70v-239h350v239zM702 201h-350v-240h350v240zM633 131v-100h-211v100h211zM702 -88h-350v-70h148l-148 -98v-70h350v70h-215l148 98h67v70z" glyph-name=".notdef" horiz-adv-x="1054"/><glyph glyph-name="glyph1" horiz-adv-x="0"/><glyph glyph-name="glyph2" horiz-adv-x="681"/><glyph glyph-name="space" horiz-adv-x="378" unicode=" "/><glyph d="M182 375q-4 197 -47 446.5t-43 331.5q0 72 31 112t88 40q55 0 87 -41t32 -111q0 -82 -44 -332t-48 -446h-56zM211 -12q-45 0 -78 32.5t-33 79.5t33 80t78 33t78 -34t33 -79t-33 -78.5t-78 -33.5z" glyph-name="exclam" horiz-adv-x="421" unicode="!"/><glyph d="M150 889q-25 0 -29 39l-47 334q-4 41 16.5 65.5t59 24.5t59 -26t14.5 -64l-45 -334q-5 -39 -28 -39zM383 889q-23 0 -29 39l-45 334q-4 41 15.5 65.5t58.5 24.5t59.5 -24.5t16.5 -65.5l-45 -334q-6 -39 -31 -39z" glyph-name="quotedbl" unicode="&quot;"/><glyph d="M1016 903h-236l-125 -491h219v-43h-231l-111 -430h-47l111 430h-274l-111 -430h-47l110 430h-223v43h236l125 491h-219v43h231l111 430h47l-111 -430h274l111 430h47l-110 -430h223v-43zM608 412l125 491h-274l-125 -491h274z" glyph-name="numbersign" horiz-adv-x="1067" unicode="#"/><glyph d="M899 434q0 -145 -117.5 -222t-289.5 -85v-127h-41v127q-180 2 -334 96q-37 94 -35 179t41 85q23 0 29 -22q37 -115 115.5 -187.5t183.5 -89.5v435l-11 4q-346 117 -346 348q0 127 95.5 211t261.5 92v133h41v-131h2q180 0 317 -82q37 -94 35 -179t-41 -85q-20 0 -29 22 q-39 115 -114.5 183.5t-169.5 83.5v-430l8 -2q59 -20 76.5 -26.5t74 -29t79 -38t63.5 -45t58 -58.5t32.5 -71t15.5 -89zM240 1030q0 -86 54 -135t157 -88v420h-9q-102 0 -152 -57.5t-50 -139.5zM520 182q102 2 161.5 51.5t59.5 147.5q0 96 -61.5 143t-187.5 86v-428h28z" glyph-name="dollar" horiz-adv-x="970" unicode="$"/><glyph d="M1044 1272h66l-827 -1272h-158l885 1223q-68 -53 -150 -64.5t-132 0.5t-142 41q41 -63 41 -145q0 -129 -96.5 -227.5t-219.5 -98.5q-98 0 -153.5 67.5t-55.5 164.5q0 129 96.5 227t219.5 98q94 0 186 -23.5t144.5 -42t129 -10t166.5 61.5zM354 778q68 0 101.5 72 t33.5 180q0 205 -114 205q-68 0 -101.5 -71.5t-33.5 -180.5q-1 -205 114 -205zM987 537q98 0 153.5 -68t55.5 -166q0 -129 -96 -227.5t-219 -98.5q-98 0 -153.5 68t-55.5 164q0 129 96 228.5t219 99.5zM924 29q68 0 101.5 71.5t33.5 180.5q0 205 -115 204 q-68 0 -101.5 -71.5t-33.5 -180.5q0 -204 115 -204z" glyph-name="percent" horiz-adv-x="1298" unicode="%"/><glyph d="M653.5 -20q-239.5 0 -405.5 111.5t-166 295.5q0 154 118.5 256t229.5 102q-94 25 -156.5 99t-62.5 170q0 125 102.5 208t270.5 83q141 0 237.5 -60.5t96.5 -152.5q0 -45 -24 -72t-60.5 -27t-62.5 25.5t-26 73.5q0 72 -50 114.5t-117 42.5q-92 0 -141.5 -54t-49.5 -151 q0 -117 68.5 -204.5t195.5 -124.5l-20 -51q-160 31 -258.5 -56.5t-98.5 -228.5q0 -160 113 -252t279 -92q178 0 291.5 105.5t113.5 248.5q0 82 -42 132t-111 50q-78 0 -110 -50t9 -95h-49q-45 37 -45 96q0 10 2 20.5t8 21.5t10.5 18.5t15.5 18.5t16 16.5t21.5 17.5t21.5 16 t24.5 17.5t25.5 17.5l226 150q96 66 135 111.5t39 115.5q0 82 -60.5 121t-154.5 4l-19 39q80 45 162 45q94 0 167 -58.5t73 -162.5q0 -111 -92.5 -183.5t-360.5 -212.5q-45 -23 -68 -34q162 2 245 -70t85 -178q2 -166 -175 -279.5t-416.5 -113.5z" glyph-name="ampersand" horiz-adv-x="1517" unicode="&amp;"/><glyph d="M150 889q-25 0 -29 39l-47 334q-4 41 16.5 65.5t59 24.5t59 -26t14.5 -64l-45 -334q-5 -39 -28 -39z" glyph-name="quotesingle" horiz-adv-x="296" unicode="'"/><glyph d="M537 -340q-23 0 -39 14q-182 164 -294 409t-112 523.5t111.5 523t294.5 408.5q16 14 39 14h14q20 0 27.5 -8t-3.5 -18q-152 -147 -232.5 -390t-76.5 -530q-4 -283 75 -522.5t224 -386.5q10 -10 12.5 -18.5t-4 -13.5t-18.5 -5h-18z" glyph-name="parenleft" horiz-adv-x="632" unicode="("/><glyph d="M96 -340h-18q-18 0 -21.5 10.5t11.5 26.5q145 147 224 387t75 522q4 287 -77 529.5t-233 390.5q-10 10 -3 18t28 8h14q23 0 39 -14q182 -164 294 -408.5t112 -523t-112 -523.5t-294 -409q-16 -14 -39 -14z" glyph-name="parenright" horiz-adv-x="632" unicode=")"/><glyph d="M315 1065l-61 160q8 70 82 80q74 -10 82 -80l-64 -160q-4 -12 -12 -17.5t-15.5 0t-11.5 17.5zM252 1001l-164 37q-55 41 -27 111q45 57 111 29l113 -138q14 -14 2 -28.5t-35 -10.5zM422 1001q-23 -4 -35 10.5t2 28.5l113 138q63 27 110 -29q29 -68 -26 -111zM172 793 q-66 -29 -111 28q-29 70 27 113l166 35q20 4 31.5 -10.5t-2.5 -28.5zM502 793l-111 137q-14 14 -3 28.5t32 10.5l166 -35q53 -45 26 -113q-47 -55 -110 -28zM336 670q-74 10 -82 80l61 159q8 20 20.5 20.5t20.5 -20.5l62 -159q-8 -70 -82 -80z" glyph-name="asterisk" horiz-adv-x="673" unicode="*"/><glyph d="M860 543v-56h-350v-352h-55v352h-353v56h353v352h55v-352h350z" glyph-name="plus" horiz-adv-x="962" unicode="+"/><glyph d="M152 -195l-27 29q31 27 52.5 65t21.5 62q0 35 -33 35q-45 0 -75 30.5t-30 75.5q0 49 34 80t81 31q59 0 90 -43t31 -109q0 -72 -39.5 -142.5t-105.5 -113.5z" glyph-name="comma" horiz-adv-x="358" unicode=","/><glyph d="M102 510v53h553v-53h-553z" glyph-name="hyphen" horiz-adv-x="757" unicode="-"/><glyph d="M192.5 -12q-45.5 0 -78 33.5t-32.5 78.5t32.5 79t78 34t79 -33t33.5 -80t-33.5 -79.5t-79 -32.5z" glyph-name="period" horiz-adv-x="387" unicode="."/><glyph d="M72 0l546 1313h87l-547 -1313h-86z" glyph-name="slash" horiz-adv-x="776" unicode="/"/><glyph d="M579.5 -20q-163.5 0 -282.5 96t-172 243.5t-53 323.5t53 322.5t172 243t282.5 96.5t282.5 -96.5t172 -243t53 -322.5t-53 -323.5t-172 -243.5t-282.5 -96zM598 35q291 0 291 555q0 129 -16.5 240.5t-52.5 209t-102.5 153.5t-156.5 56q-293 0 -293 -553 q0 -131 16.5 -242.5t52.5 -209t102.5 -153.5t158.5 -56z" glyph-name="zero" horiz-adv-x="1159" unicode="0"/><glyph d="M61 0v41q104 10 141.5 32.5t37.5 78.5v878q0 66 -15.5 80t-70.5 10l-84 -6v39l272 127q61 27 61 -33v-1095q0 -55 37 -78t140 -33v-41h-519z" glyph-name="one" horiz-adv-x="641" unicode="1"/><glyph d="M82 0q0 106 54 205.5t135 171.5t175.5 148.5t175 142t135 149.5t54.5 170q0 106 -65.5 186t-188.5 80q-113 0 -182.5 -72.5t-69.5 -176.5q0 -45 15.5 -81t15.5 -57q0 -47 -27.5 -67.5t-64.5 -20.5q-55 0 -90 50.5t-35 125.5q0 139 113.5 245t330.5 106q207 0 319.5 -96.5 t112.5 -256.5q0 -113 -65.5 -203t-169 -155.5t-213 -125.5t-214 -143t-155.5 -178h535q117 0 170 31t88 119h41l-33 -168q-18 -96 6 -129h-903z" glyph-name="two" horiz-adv-x="1093" unicode="2"/><glyph d="M526 -20q-195 0 -324.5 101t-129.5 259q0 127 100 127q45 0 58.5 -21.5t24.5 -90t36 -128.5q76 -195 258 -194q137 0 220 96t83 256q0 145 -68.5 217t-175.5 72q-72 0 -166 -39l-22 55q195 66 268.5 121t73.5 174t-62.5 194.5t-175.5 75.5q-104 0 -159.5 -69.5 t-55.5 -181.5q0 -117 -86 -117q-51 0 -76.5 31.5t-25.5 82.5q0 119 110.5 211.5t315.5 92.5q193 0 293 -80t100 -207q0 -193 -262 -283q74 8 154.5 -23.5t144 -113.5t63.5 -197q0 -180 -149.5 -300.5t-364.5 -120.5z" glyph-name="three" horiz-adv-x="1122" unicode="3"/><glyph d="M516 0v41q88 10 122 32.5t34 78.5v190h-586l-35 102l613 861l172 -33v-793h206v-137h-206v-190q0 -55 33.5 -78t123.5 -33v-41h-477zM190 479h482v750l-502 -703q-14 -23 -8.5 -35t28.5 -12z" glyph-name="four" horiz-adv-x="1124" unicode="4"/><glyph d="M526 -20q-195 0 -324.5 100t-129.5 260q0 127 100 127q45 0 58.5 -21.5t24.5 -90t36 -128.5q80 -195 258 -194q131 0 218 101.5t87 254.5q0 170 -96 290t-264 120q-190 0 -283 -140h-43l49 613h586l143 28l-22 -188h-670l-31 -371q55 57 148.5 94t191.5 37 q184 0 331.5 -115.5t147.5 -322.5q0 -195 -147.5 -324.5t-368.5 -129.5z" glyph-name="five" horiz-adv-x="1114" unicode="5"/><glyph d="M543 -20q-127 0 -222.5 51t-147.5 139t-76.5 193.5t-24.5 228.5q0 135 31.5 258t93 227.5t169 166t248.5 61.5q147 0 228 -68l-27 -39q-82 43 -158 43q-111 0 -192.5 -57.5t-125.5 -151.5t-63.5 -194.5t-19.5 -206.5q23 59 124 121.5t226 62.5q168 0 281.5 -114.5 t113.5 -284.5q0 -180 -123.5 -308t-334.5 -128zM561 33q129 0 193.5 107.5t64.5 248.5q0 154 -72.5 250t-199.5 96q-119 0 -205 -90t-86 -231q0 -145 84 -263t221 -118z" glyph-name="six" horiz-adv-x="1062" unicode="6"/><glyph d="M195 0l639 1112h-441q-113 0 -173 -23.5t-97 -105.5h-51l92 305l151 -16h654l-643 -1272h-131z" glyph-name="seven" horiz-adv-x="1019" unicode="7"/><glyph d="M539 -20q-215 0 -341 103t-126 269q0 238 270 334q-90 45 -140 124t-50 173q0 141 113.5 231.5t293.5 90.5q178 0 283.5 -88.5t105.5 -219.5q0 -186 -207 -276q143 -47 222 -137t79 -211q0 -168 -142 -280.5t-361 -112.5zM567 778q119 -33 181.5 43t62.5 187 q0 102 -61.5 172.5t-198.5 70.5q-121 0 -177.5 -61.5t-56.5 -153.5q0 -190 232 -254zM559 33q147 0 222 82t75 207q0 111 -65.5 174t-221.5 104l-26 6q-131 37 -226.5 -23.5t-95.5 -211.5q0 -141 89 -239.5t249 -98.5z" glyph-name="eight" horiz-adv-x="1114" unicode="8"/><glyph d="M520 1305q127 0 222.5 -51.5t147.5 -139.5t76.5 -193.5t24.5 -228.5q0 -135 -30.5 -258t-93 -227.5t-170 -165.5t-248.5 -61q-147 0 -226 67l25 39q82 -43 158 -43q111 0 193.5 57.5t125.5 152.5t63.5 195.5t20.5 206.5q-25 -61 -126 -123.5t-226 -62.5 q-168 0 -282 114.5t-114 286.5q0 178 125 306.5t334 128.5zM504 1251q-129 0 -193.5 -107.5t-64.5 -248.5q0 -152 72.5 -249t197.5 -97q121 0 206 90t85 233q0 145 -83 262t-220 117z" glyph-name="nine" horiz-adv-x="1062" unicode="9"/><glyph d="M193 670q-45 0 -78 32.5t-33 79.5q0 45 32.5 78t78 33t79 -33t33.5 -78q0 -47 -32.5 -79.5t-79.5 -32.5zM195 -12q-45 0 -78 33.5t-33 78.5t33 79t78 34q47 0 79.5 -33t32.5 -80t-32.5 -79.5t-79.5 -32.5z" glyph-name="colon" horiz-adv-x="389" unicode=":"/><glyph d="M178 668q-47 0 -79.5 32.5t-32.5 79.5q0 45 33.5 78t78.5 33t78 -33t33 -78q0 -47 -33 -79.5t-78 -32.5zM152 -195l-27 29q31 27 52.5 65t21.5 62q0 35 -33 35q-45 0 -75 30.5t-30 75.5q0 49 34 80t81 31q59 0 90 -43t31 -109q0 -72 -39.5 -142.5t-105.5 -113.5z" glyph-name="semicolon" horiz-adv-x="358" unicode=";"/><glyph d="M858 121l-756 358v70l756 358v-67l-678 -326l678 -326v-67z" glyph-name="less" horiz-adv-x="960" unicode="&lt;"/><glyph d="M102 672v55h758v-55h-758zM102 303v55h758v-55h-758z" glyph-name="equal" horiz-adv-x="962" unicode="="/><glyph d="M102 121v67l678 326l-678 326v67l756 -358v-70z" glyph-name="greater" horiz-adv-x="960" unicode=">"/><glyph d="M430 356q-8 113 14.5 199t59.5 140.5t75.5 100.5t66.5 101t28 121q0 102 -62.5 161.5t-162.5 59.5q-98 0 -145.5 -57.5t-47.5 -134.5q0 -31 20.5 -83.5t20.5 -80.5q0 -33 -30.5 -59.5t-69.5 -26.5q-53 0 -89 49t-36 125q0 145 114.5 239.5t300.5 94.5q176 0 276.5 -84 t100.5 -224q0 -68 -25.5 -123t-63.5 -89.5t-84 -77.5t-87 -85t-70.5 -111t-35.5 -155h-68zM465 -12q-47 0 -80 32.5t-33 79.5t33 80t80 33q45 0 77.5 -34t32.5 -79t-32.5 -78.5t-77.5 -33.5z" glyph-name="question" horiz-adv-x="935" unicode="?"/><glyph d="M737 -170q-281 0 -478.5 193.5t-197.5 486.5q0 291 196 484.5t468 193.5q276 0 468.5 -184.5t192.5 -477.5q0 -184 -82.5 -291.5t-209.5 -107.5q-143 0 -187 164q-35 -61 -112.5 -112.5t-176.5 -51.5q-88 0 -152.5 47t-64.5 148q0 98 94.5 160.5t344.5 101.5q49 8 49 43 q0 217 -154 217q-78 0 -107.5 -23.5t-29.5 -83.5q0 -96 -78 -96q-74 0 -74 72q0 80 101.5 129t222.5 49q256 0 256 -275v-340q0 -43 19.5 -74.5t62.5 -31.5t72.5 30.5t42 81t17.5 92.5t5 85q0 285 -141 484.5t-379 199.5q-240 0 -379 -168t-139 -426q0 -262 155.5 -468 t391.5 -206q113 0 170 14l8 -36q-97 -23 -195 -23zM688 201q82 0 141.5 59t59.5 141v76q0 33 -11.5 49.5t-41.5 12.5q-160 -20 -221.5 -78t-61.5 -121.5t34.5 -101t100.5 -37.5z" glyph-name="at" horiz-adv-x="1447" unicode="@"/><glyph d="M41 0v43q72 14 110.5 46t71.5 104l395 923q41 94 41 156l117 12l451 -1040q49 -115 82.5 -153t109.5 -48v-43h-461v43q90 14 106.5 46t-13.5 91l-60 133q-35 74 -119 74h-397q-90 0 -117 -61l-59 -136q-51 -125 131 -147v-43h-389zM463 451h418q20 0 31.5 14t0.5 37 l-221 514q-20 49 -41 -2l-217 -508q-10 -27 -2 -41t31 -14z" glyph-name="A" horiz-adv-x="1460" unicode="A"/><glyph d="M61 0v43q68 12 95.5 31.5t27.5 72.5v979q0 51 -27.5 71t-95.5 32v43h594q219 0 339 -75t120 -218q0 -227 -297 -297q180 -29 275.5 -113t95.5 -221q0 -154 -117 -251t-305 -97q-27 0 -177.5 7t-293 7t-234.5 -14zM498 717h151q276 0 277 254q0 246 -273 246h-155 q-66 0 -96.5 -18.5t-30.5 -70.5v-323q0 -51 29.5 -69.5t97.5 -18.5zM444 61h256q299 0 299 281q0 162 -111.5 239.5t-383.5 77.5q-70 0 -101.5 -18t-31.5 -70v-419q-1 -91 73 -91z" glyph-name="B" horiz-adv-x="1269" unicode="B"/><glyph d="M723 -20q-270 0 -466 180t-196 481q0 303 200 483.5t478 180.5q215 0 349.5 -102.5t134.5 -223.5q0 -55 -32 -91t-85 -36q-47 0 -78 33t-35 94q-8 102 -88 181t-233 79q-190 0 -307 -134t-117 -366q0 -281 171 -457t421 -176q209 0 368 179l29 -25q-55 -100 -187 -190 t-327 -90z" glyph-name="C" horiz-adv-x="1308" unicode="C"/><glyph d="M61 0v43q68 12 95.5 31.5t27.5 72.5v979q0 51 -27.5 71t-95.5 32v43h480q139 0 256.5 -32t218 -100.5t158 -194.5t57.5 -298q0 -164 -53.5 -290t-146.5 -201.5t-211 -113.5t-255 -38q-39 0 -144.5 5t-148.5 5q-90 0 -211 -14zM551 57q172 0 284.5 84t156.5 211t44 295 q0 123 -25.5 222.5t-82 179t-154.5 124t-231 44.5h-45q-66 0 -96.5 -18.5t-30.5 -70.5v-981q0 -90 180 -90z" glyph-name="D" horiz-adv-x="1312" unicode="D"/><glyph d="M61 0v43q68 12 95.5 31.5t27.5 72.5v977q0 53 -27.5 73t-95.5 32v43h930q29 0 31 -25q12 -106 41 -223h-39q-39 96 -100.5 143t-163.5 47h-262q-66 0 -96.5 -20t-30.5 -76v-350q0 -55 29.5 -73.5t97.5 -18.5h202q88 0 121 33.5t47 113.5h33v-354h-33q-14 78 -47 113.5 t-121 35.5h-202q-66 0 -96.5 -19t-30.5 -73v-370q0 -57 40 -78t152 -19l236 2q102 2 148 30t77 81l49 76h41q-45 -82 -61 -219q-4 -29 -33 -29h-959z" glyph-name="E" horiz-adv-x="1150" unicode="E"/><glyph d="M61 0v43q68 12 95.5 31.5t27.5 72.5v977q0 53 -27.5 73t-95.5 32v43h930q29 0 31 -25q12 -106 41 -223h-39q-39 96 -100.5 143t-163.5 47h-262q-66 0 -96.5 -20t-30.5 -76v-350q0 -55 29.5 -73.5t97.5 -18.5h202q88 0 121 30.5t47 96.5h33v-314h-33q-14 66 -48 97.5 t-120 31.5h-202q-66 0 -96.5 -19t-30.5 -73v-379q0 -53 30.5 -72.5t114.5 -31.5v-43h-455z" glyph-name="F" horiz-adv-x="1101" unicode="F"/><glyph d="M707 -20q-264 0 -455 178t-191 479q0 305 199 486.5t479 181.5q213 0 347.5 -102.5t134.5 -219.5q0 -51 -32 -85t-85 -34q-45 0 -74 29t-33 76q-8 104 -90 187t-235 83q-190 0 -307 -134t-117 -366q0 -293 177 -488.5t421 -195.5q178 0 178 142v143q0 115 -34 153.5 t-148 47.5v41l481 2v-43q-82 -10 -105.5 -48t-23.5 -153v-150q0 -127 10 -190q-47 39 -102 43t-104.5 -11.5t-131 -33.5t-159.5 -18z" glyph-name="G" horiz-adv-x="1374" unicode="G"/><glyph d="M1343 1229q-68 -12 -95 -31.5t-27 -73.5v-977q0 -53 27.5 -72.5t94.5 -31.5v-43h-432v43q68 12 95.5 31.5t27.5 72.5v388q0 70 -69 69h-523q-72 0 -71 -69v-388q0 -53 27.5 -72.5t97.5 -31.5v-43h-435v43q68 12 95.5 31.5t27.5 72.5v977q0 53 -27.5 73t-95.5 32v43h435 v-43q-70 -12 -97.5 -31.5t-27.5 -73.5v-393q0 -72 73 -72h519q72 0 71 72v393q0 53 -27.5 73t-95.5 32v43h432v-43z" glyph-name="H" horiz-adv-x="1404" unicode="H"/><glyph d="M61 0v43q68 12 95.5 31.5t27.5 72.5v977q0 53 -27.5 73t-95.5 32v43h435v-43q-70 -12 -97.5 -31.5t-27.5 -73.5v-977q0 -53 27.5 -72.5t97.5 -31.5v-43h-435z" glyph-name="I" horiz-adv-x="557" unicode="I"/><glyph d="M236 -20q-131 0 -204 55t-73 135q0 47 25.5 76.5t70.5 29.5q88 0 88 -110q0 -51 28 -92t81 -41q98 0 98 145v946q0 53 -30.5 73t-112.5 32v43h455v-43q-70 -12 -97.5 -31.5t-27.5 -73.5v-841q0 -303 -301 -303z" glyph-name="J" horiz-adv-x="722" unicode="J"/><glyph d="M1018 211q53 -68 103 -105.5t71.5 -45t71.5 -17.5v-43h-459v43q55 4 71.5 27.5t-24.5 83.5l-313 385q-49 61 -111 2q-55 -51 -57 -123v-271q0 -53 27.5 -72.5t97.5 -31.5v-43h-435v43q68 12 95.5 31.5t27.5 72.5v977q0 53 -27.5 73t-95.5 32v43h435v-43 q-70 -12 -97.5 -31.5t-27.5 -73.5v-563l528 541q41 41 35 68.5t-31.5 42t-60.5 16.5v43h385v-43q-127 -8 -258 -135l-307 -318q-53 -55 12 -133z" glyph-name="K" horiz-adv-x="1314" unicode="K"/><glyph d="M61 0v43q68 12 95.5 31.5t27.5 72.5v977q0 53 -27.5 73t-95.5 32v43h435v-43q-70 -12 -97.5 -31.5t-27.5 -73.5v-977q0 -100 116 -98l295 17q154 8 226 127l34 61h45l-40 -129q-25 -72 -21 -125h-965z" glyph-name="L" horiz-adv-x="1128" unicode="L"/><glyph d="M61 0v43q70 12 98.5 31.5t28.5 72.5v977q0 53 -28.5 73t-98.5 32v43h320l453 -934l432 934h311v-43q-68 -12 -95.5 -31.5t-27.5 -73.5v-977q0 -53 27.5 -72.5t95.5 -31.5v-43h-432v43q68 12 95.5 31.5t27.5 72.5v973l-461 -999h-62l-489 1003v-977q0 -53 28.5 -72.5 t96.5 -31.5v-43h-320z" glyph-name="M" horiz-adv-x="1638" unicode="M"/><glyph d="M61 0v43q70 12 98.5 31.5t28.5 72.5v977q0 53 -28.5 73t-98.5 32v43h271l747 -975v827q0 53 -27.5 73t-95.5 32v43h320v-43q-70 -12 -98.5 -31.5t-28.5 -73.5v-1124h-70l-823 1075v-928q0 -53 27.5 -72.5t95.5 -31.5v-43h-318z" glyph-name="N" horiz-adv-x="1337" unicode="N"/><glyph d="M705 -20q-276 0 -460 184t-184 467q0 287 192.5 480.5t477.5 193.5q276 0 459.5 -184.5t183.5 -465.5q0 -289 -192 -482t-477 -193zM758 47q168 0 287.5 131t119.5 404q0 287 -141 471t-346 184q-168 0 -288 -130t-120 -400q0 -289 141.5 -474.5t346.5 -185.5z" glyph-name="O" horiz-adv-x="1435" unicode="O"/><glyph d="M61 0v43q68 12 95.5 31.5t27.5 72.5v977q0 53 -27.5 73t-95.5 32v43h555q252 0 388.5 -100.5t136.5 -287t-137.5 -292t-387.5 -105.5h-133q-61 0 -86.5 -26.5t-25.5 -83.5v-230q0 -53 30.5 -72.5t114.5 -31.5v-43h-455zM483 545h133q326 0 326 336q0 334 -326 333h-145 q-53 0 -76.5 -19t-23.5 -73v-465q0 -59 25.5 -85.5t86.5 -26.5z" glyph-name="P" horiz-adv-x="1191" unicode="P"/><glyph d="M1292 -53q43 0 67.5 -29t24.5 -72q0 -78 -79.5 -134t-190.5 -56q-121 0 -240 86l-301 221q-111 76 -163 56.5t-52 -115.5q0 -33 -24.5 -55.5t-59.5 -22.5q-39 0 -62.5 24.5t-23.5 63.5q0 57 47.5 99t129.5 59q-141 84 -222.5 230.5t-81.5 328.5q0 287 192.5 480.5 t477.5 193.5q276 0 459.5 -184.5t183.5 -465.5q0 -270 -169 -457.5t-427 -213.5l250 -181q127 -88 148.5 -80.5t21.5 132.5q0 37 24.5 64.5t69.5 27.5zM678 1237q-168 0 -288 -130t-120 -400q0 -289 141.5 -474.5t346.5 -185.5q168 0 287.5 131t119.5 404q0 287 -141 471 t-346 184z" glyph-name="Q" horiz-adv-x="1435" unicode="Q"/><glyph d="M61 0v43q68 12 95.5 31.5t27.5 72.5v977q0 53 -27.5 73t-95.5 32v43h557q238 0 361 -90t123 -254q0 -240 -291 -316q-6 -2 -9 -6t0 -7t9 -5q158 -47 219 -246q55 -176 92 -240.5t97 -64.5v-43h-56q-143 0 -200.5 63.5t-122.5 262.5q-47 141 -119 196.5t-201 55.5 q-88 0 -118.5 -25t-30.5 -86v-320q0 -53 30.5 -72.5t114.5 -31.5v-43h-455zM483 639h148q281 0 280 285q0 291 -286 290h-119q-74 0 -104.5 -19t-30.5 -73v-372q0 -59 25.5 -85t86.5 -26z" glyph-name="R" horiz-adv-x="1259" unicode="R"/><glyph d="M512 -20q-203 0 -389 110q-43 106 -40 204.5t48 98.5q25 0 33 -24q49 -154 161.5 -242t260.5 -86q119 4 187.5 60.5t68.5 168.5q0 31 -5.5 56.5t-19.5 48t-24.5 39t-37 33t-40 25.5t-51 23.5t-51 19.5t-59.5 20.5t-58 19.5q-190 66 -295 159t-105 240q0 156 123 253.5 t336 97.5q207 0 367 -95q43 -109 39.5 -206t-48.5 -97q-23 0 -32 25q-49 152 -152.5 232.5t-230.5 80.5q-119 0 -176.5 -66.5t-57.5 -160.5q0 -109 75 -167t224 -108q74 -25 103.5 -36t98.5 -40.5t102.5 -56t75.5 -67.5t60.5 -93.5t18.5 -115.5q0 -178 -149.5 -266 t-360.5 -88z" glyph-name="S" horiz-adv-x="1093" unicode="S"/><glyph d="M305 0v43q129 10 169 29.5t40 74.5v936q0 76 -28.5 99.5t-139.5 23.5q-106 0 -155.5 -40t-92.5 -160h-47l33 254q2 16 22 16q66 -4 136 -4h729q74 0 135 4q23 0 24 -16l31 -254h-47q-43 121 -92 160.5t-156 39.5q-111 0 -138.5 -23.5t-27.5 -99.5v-936q0 -55 40 -74.5 t167 -29.5v-43h-602z" glyph-name="T" horiz-adv-x="1212" unicode="T"/><glyph d="M674 -20q-225 0 -362.5 135t-137.5 401v608q0 53 -27.5 73t-95.5 32v43h434v-43q-70 -12 -97.5 -31.5t-27.5 -73.5v-569q0 -244 93.5 -365.5t261.5 -121.5q162 0 267 111.5t105 363.5v581q0 53 -29.5 73t-101.5 32v43h332v-43q-70 -12 -98.5 -31.5t-28.5 -73.5v-596 q0 -264 -127 -406t-360 -142z" glyph-name="U" horiz-adv-x="1339" unicode="U"/><glyph d="M678 0l-445 1028q-49 117 -82.5 154t-109.5 47v43h461v-43q-90 -14 -107.5 -46t15.5 -91l358 -836q23 -47 41 2l350 823q53 125 -129 148v43h389v-43q-74 -14 -112.5 -45t-69.5 -103l-395 -923q-41 -98 -41 -158h-123z" glyph-name="V" horiz-adv-x="1460" unicode="V"/><glyph d="M635 0l-402 1028q-43 113 -79.5 152t-112.5 49v43h451v-43q-90 -14 -105.5 -45t12.5 -92l318 -824q20 -49 41 0l200 520q39 104 -12 240q-45 115 -81 153t-111 48v43h448v-43q-90 -14 -105.5 -45t15.5 -92l315 -824q20 -49 41 0l312 813q45 127 -129 148v43h387v-43 q-74 -14 -114 -45t-69 -103l-356 -923q-39 -106 -39 -158h-114l-310 799l-248 -641q-41 -111 -40 -158h-113z" glyph-name="W" horiz-adv-x="2078" unicode="W"/><glyph d="M41 0v43q76 6 171 89t296 339l102 131l-299 428q-74 109 -125 150t-123 49v43h453v-43q-68 -8 -80 -30.5t31 -88.5l262 -375q289 365 264 451q-8 39 -71 43v43h395v-43q-74 -6 -166 -88t-295 -340l-92 -117l307 -440q76 -109 127 -151t123 -50v-43h-453v43q68 8 79 30.5 t-29 88.5l-271 389q-295 -371 -282 -461q6 -41 73 -47v-43h-397z" glyph-name="X" horiz-adv-x="1361" unicode="X"/><glyph d="M395 0v43q96 12 130 30.5t34 73.5v349q0 47 -43 116l-268 424q-61 96 -107.5 135t-109.5 58v43h454v-43q-80 -16 -91 -49t32 -97l266 -421q14 -18 29 0l252 413q39 55 29.5 88t-35 46.5t-72.5 19.5v43h377v-43q-74 -8 -120 -43t-105 -129l-273 -436q-29 -47 -29 -125 v-349q0 -55 34 -73.5t130 -30.5v-43h-514z" glyph-name="Y" horiz-adv-x="1302" unicode="Y"/><glyph d="M31 0l807 1186q18 35 -19 35l-370 -2q-145 0 -208 -49.5t-102 -153.5h-49l41 256h981l-809 -1186q-10 -12 -4 -23.5t23 -11.5l434 6q129 2 192.5 46t114.5 145h49l-53 -248h-1028z" glyph-name="Z" horiz-adv-x="1163" unicode="Z"/><glyph d="M481 -340l-389 18v1858l389 18v-18q0 -25 -43 -33l-198 -39v-1714l198 -39q43 -6 43 -33v-18z" glyph-name="bracketleft" unicode="["/><glyph d="M705 0h-87l-546 1313h86z" glyph-name="backslash" horiz-adv-x="776" unicode="\"/><glyph d="M51 -340v18q0 27 43 33l199 39v1714l-199 39q-43 8 -43 33v18l389 -18v-1858z" glyph-name="bracketright" unicode="]"/><glyph d="M125 924q-16 0 -21.5 16t11.5 39l301 403q23 27 37 0l301 -403q16 -23 12 -39t-23 -16h-28q-18 0 -53 41l-228 247l-225 -249q-35 -39 -53 -39h-31z" glyph-name="asciicircum" horiz-adv-x="868" unicode="^"/><glyph d="M102 -86v45h1049v-45h-1049z" glyph-name="underscore" horiz-adv-x="1253" unicode="_"/><glyph d="M496 1090q-14 -20 -60 6l-239 145q-51 31 -62.5 71t12.5 60q55 59 127 -16l203 -215q31 -28 19 -51z" glyph-name="grave" horiz-adv-x="587" unicode="`"/><glyph d="M328 -12q-113 0 -190 56t-77 169q0 129 129 212t453 120q49 4 49 55v49q0 113 -55 176.5t-168 63.5q-172 0 -172 -150q0 -106 -90 -106q-41 0 -62.5 25.5t-21.5 68.5q0 109 117.5 162t281.5 53q180 0 257 -81t77 -255v-469q0 -88 105 -69v-25q-41 -55 -138 -55 q-127 0 -133 149q2 14 -8 14.5t-20 -14.5q-57 -70 -147.5 -109.5t-186.5 -39.5zM424 82q111 0 189.5 70.5t78.5 175.5v94q0 39 -16.5 57.5t-65.5 12.5q-373 -45 -372 -242q0 -72 47 -120t139 -48z" glyph-name="a" horiz-adv-x="999" unicode="a"/><glyph d="M180 -12q-27 0 -26 28v1119q0 72 -26 98.5t-108 17.5v41l226 49q72 16 71 -57v-446q0 -16 11.5 -20.5t27.5 11.5q33 41 114 77t173 36q172 0 288 -127t116 -334q0 -229 -130.5 -361t-310.5 -132q-100 0 -204.5 50t-116.5 50q-29 0 -58 -50t-47 -50zM614 41 q125 0 198 97.5t73 258.5q0 184 -93.5 308t-236.5 124q-94 0 -166 -57t-72 -194v-211q0 -160 91 -243t206 -83z" glyph-name="b" horiz-adv-x="1107" unicode="b"/><glyph d="M545 -12q-203 0 -343.5 129t-140.5 346q0 221 145.5 350t352.5 129q158 0 255 -74.5t97 -165.5q0 -43 -25.5 -70.5t-66.5 -27.5q-82 0 -90 90q-8 80 -59.5 136.5t-155.5 56.5q-131 0 -208 -94.5t-77 -260.5q0 -199 118 -315.5t294 -116.5q166 0 250 131l35 -28 q-33 -80 -133.5 -147.5t-247.5 -67.5z" glyph-name="c" horiz-adv-x="997" unicode="c"/><glyph d="M457 -12q-168 0 -282 131t-114 340q0 223 132.5 353t318.5 130q51 0 102.5 -11t80 -22.5t53 -17.5t34 5t9.5 44v195q0 72 -26 98.5t-108 17.5v41l226 49q72 16 71 -57v-1147q0 -88 105 -69v-25q-39 -55 -135 -55q-100 0 -129 94q-8 31 -37 31q-18 0 -47 -19.5t-57.5 -43 t-82 -43t-114.5 -19.5zM559 100q92 0 162 54.5t70 179.5v235q0 158 -91.5 239t-207.5 81q-125 0 -196 -97.5t-71 -259.5q0 -188 92 -310t242 -122z" glyph-name="d" horiz-adv-x="1107" unicode="d"/><glyph d="M532 -12q-199 0 -335 131t-136 348q0 219 136.5 347t339.5 128q154 0 244.5 -74.5t90.5 -191.5q0 -100 -86 -143.5t-305 -53.5l-182 -8q-63 -2 -51 -86q20 -131 124.5 -209t245.5 -78q166 0 256 117l33 -27q-39 -74 -135.5 -137t-239.5 -63zM303 522l150 2 q145 4 198.5 36t53.5 114q0 92 -51.5 152.5t-153.5 60.5q-115 0 -181.5 -73t-80.5 -200q-6 -59 9 -76.5t56 -15.5z" glyph-name="e" horiz-adv-x="978" unicode="e"/><glyph d="M51 0v43q84 8 115 30.5t31 78.5v636q0 35 -11.5 47.5t-33.5 12.5h-111v45q86 14 121 34.5t35 67.5q0 199 96 300.5t264 101.5q100 0 160.5 -36t60.5 -101q0 -78 -82 -78q-39 0 -65.5 23.5t-39.5 53t-46 53t-80 23.5q-66 0 -85.5 -49t-19.5 -166v-143q0 -39 20.5 -51.5 t86.5 -12.5h141v-69l-141 4q-66 2 -86.5 -11.5t-20.5 -52.5v-632q0 -55 37 -78t146 -31v-43h-492z" glyph-name="f" horiz-adv-x="757" unicode="f"/><glyph d="M414 -389q-166 0 -274.5 63.5t-108.5 175.5q0 135 178 201q31 12 33 15q0 4 -17 6q-66 10 -108.5 52t-42.5 95t44 91t128 50q-154 88 -154 265q0 141 100.5 229t276.5 88q106 0 194.5 -37t135.5 -106q-2 61 26.5 101t92.5 40q45 0 70.5 -20.5t25.5 -55.5q0 -41 -32 -59.5 t-69 -5.5q-43 14 -67.5 -6.5t-9.5 -65.5q12 -39 12 -98q0 -141 -99.5 -227.5t-269.5 -86.5q-41 0 -98 6.5t-78 6.5q-82 0 -82 -60q0 -51 94 -65l328 -58q158 -27 233.5 -72.5t75.5 -138.5q0 -139 -164.5 -231t-373.5 -92zM504 360q88 0 128 66t40 164q0 133 -64.5 219 t-171.5 86q-90 0 -130 -64.5t-40 -162.5q0 -133 66 -220.5t172 -87.5zM485 -342q129 0 216 59.5t87 153.5q0 57 -38.5 86t-128.5 47l-138 23q-147 27 -217.5 -18.5t-70.5 -135.5q0 -100 81.5 -157.5t208.5 -57.5z" glyph-name="g" horiz-adv-x="1044" unicode="g"/><glyph d="M938 -12q-131 0 -131 145v422q0 129 -60.5 207t-171 78t-179 -79t-68.5 -206v-403q0 -55 28.5 -78t104.5 -31v-43h-428v43q74 8 102.5 30.5t28.5 78.5v983q0 72 -25.5 98.5t-107.5 17.5v41l225 49q72 16 72 -57v-407q0 -92 30 -86q6 0 17 10l18 18q20 20 32.5 31.5 t41.5 31t55.5 31t66.5 20.5t83 9q127 0 213 -84t86 -256v-465q0 -88 104 -69v-25q-41 -55 -137 -55z" glyph-name="h" horiz-adv-x="1114" unicode="h"/><glyph d="M248 1163q-41 0 -72 32t-31 73t31 71.5t72 30.5t71.5 -30.5t30.5 -71.5t-30.5 -73t-71.5 -32zM53 0v43q74 8 102.5 30.5t28.5 78.5v577q0 74 -25.5 100.5t-107.5 18.5v39l225 51q72 16 72 -59v-727q0 -55 29 -78t104 -31v-43h-428z" glyph-name="i" unicode="i"/><glyph d="M233.5 1163q-40.5 0 -71.5 32t-31 73t31 71.5t71.5 30.5t71.5 -30.5t31 -71.5t-31 -73t-71.5 -32zM74 -410q-78 0 -135.5 33t-57.5 94q0 37 21.5 59.5t60.5 22.5q29 0 51.5 -23.5t35.5 -53t31.5 -53t41.5 -23.5q49 0 49 106v977q0 74 -25.5 100.5t-107.5 18.5v39l225 51 q72 16 72 -59v-1006q0 -133 -71.5 -208t-190.5 -75z" glyph-name="j" horiz-adv-x="468" unicode="j"/><glyph d="M33 0v43q74 8 102.5 30.5t28.5 78.5v983q0 72 -25.5 98.5t-107.5 17.5v41l225 49q72 16 72 -57v-745q0 -29 15 -38t34 7l321 291q18 18 18.5 34.5t-25 30t-75.5 17.5v43h338v-43q-23 -2 -42 -7.5t-30.5 -8.5t-27.5 -14t-22.5 -15.5t-27 -21.5t-26.5 -23l-225 -201 l326 -451q31 -41 56.5 -61.5t42.5 -24.5t64 -10v-43h-383v43q57 8 64.5 23.5t-23.5 58.5l-243 340q-18 23 -54 -6q-76 -68 -75 -125v-182q0 -55 28.5 -78t104.5 -31v-43h-428z" glyph-name="k" horiz-adv-x="1042" unicode="k"/><glyph d="M285 -12q-131 0 -131 145v1002q0 72 -26 98.5t-108 17.5v41l226 49q72 16 71 -57v-1147q0 -88 105 -69v-25q-39 -55 -137 -55z" glyph-name="l" horiz-adv-x="471" unicode="l"/><glyph d="M1481 -12q-131 0 -131 145v422q0 131 -50.5 208t-150.5 77q-98 0 -157.5 -79t-59.5 -206v-403q0 -53 27.5 -77t93.5 -32v-43h-420v43q76 8 105.5 30.5t29.5 78.5v403q0 131 -50 208t-151 77q-98 0 -158.5 -79t-60.5 -206v-403q0 -55 29 -78t104 -31v-43h-428v43 q74 8 102.5 30.5t28.5 78.5v575q0 72 -25.5 98.5t-107.5 18.5v43l225 51q72 16 72 -61q0 -94 29 -89q6 2 16 13l17 20q16 20 26 30.5t35 31t47.5 31t58 19.5t74.5 9q158 0 234 -129q39 -70 80 -16q27 37 45 58.5t80.5 54t138.5 32.5q127 0 205.5 -82t78.5 -252v-471 q0 -88 105 -69v-25q-41 -55 -137 -55z" glyph-name="m" horiz-adv-x="1656" unicode="m"/><glyph d="M958 -12q-131 0 -131 145v422q0 129 -60 207t-171 78q-115 0 -181.5 -79t-66.5 -206v-403q0 -55 29 -78t104 -31v-43h-428v43q74 8 102.5 30.5t28.5 78.5v577q0 74 -25.5 100.5t-107.5 18.5v39l225 51q72 16 72 -61q0 -92 31 -86q6 0 16 10q131 141 291 141 q131 0 218 -84t87 -256v-465q0 -92 105 -69v-25q-42 -55 -138 -55z" glyph-name="n" horiz-adv-x="1134" unicode="n"/><glyph d="M530 -12q-195 0 -332 130t-137 345t138.5 347t337.5 132q195 0 331 -130t136 -343q0 -215 -138.5 -348t-335.5 -133zM582 45q111 0 178 89t67 259q0 203 -97 347.5t-247 144.5q-111 0 -177 -88t-66 -258q0 -205 96 -349.5t246 -144.5z" glyph-name="o" horiz-adv-x="1064" unicode="o"/><glyph d="M43 -389v43q74 8 102.5 30.5t28.5 77.5v967q0 74 -25.5 100.5t-107.5 18.5v39l225 51q72 16 72 -64v-28q0 -18 11 -23.5t28 11.5q35 39 114.5 73.5t172.5 34.5q172 0 287.5 -128t115.5 -337q0 -225 -131 -357t-311 -132q-55 0 -107.5 13t-82 27.5t-54.5 22.5t-34 -1 t-9 -44v-244q0 -55 30.5 -77.5t110.5 -30.5v-43h-436zM635 41q125 0 197.5 97.5t72.5 258.5q0 184 -93 308t-237 124q-94 0 -165.5 -57t-71.5 -192v-213q0 -160 91 -243t206 -83z" glyph-name="p" horiz-adv-x="1128" unicode="p"/><glyph d="M639 -389v43q88 8 120 30.5t32 77.5v306q0 31 -20.5 39t-41.5 -11q-109 -109 -260 -108q-174 0 -291 133t-117 344q0 223 130.5 350t324.5 127q84 0 145.5 -24.5t96.5 -48t53 -23.5q29 0 63.5 47t53.5 47q27 0 26 -31v-1147q0 -55 29 -77.5t102 -30.5v-43h-446zM553 100 q94 0 166 53.5t72 174.5v198q0 186 -90.5 274.5t-208.5 88.5q-125 0 -196 -98.5t-71 -260.5q0 -186 91.5 -308t236.5 -122z" glyph-name="q" horiz-adv-x="1085" unicode="q"/><glyph d="M53 0v43q74 8 102.5 30.5t28.5 78.5v577q0 74 -25.5 100.5t-107.5 18.5v39l225 51q72 16 72 -61v-58q0 -18 12.5 -22t30.5 12q123 133 271 133q104 0 146 -52t42 -112q0 -45 -26.5 -72.5t-67.5 -27.5q-39 0 -62.5 21.5t-23.5 50.5q0 41 -28 69.5t-77 28.5 q-90 0 -153.5 -87t-63.5 -226v-383q0 -55 30 -78t107 -31v-43h-432z" glyph-name="r" horiz-adv-x="880" unicode="r"/><glyph d="M416 -12q-203 0 -310 92q-37 72 -35.5 140.5t50.5 68.5q31 0 45 -41q76 -209 276 -209q96 0 146.5 41t50.5 113q0 23 -4 41t-14.5 33.5t-18.5 27.5t-27.5 24.5t-31 19.5t-38 18.5t-36.5 15.5t-42 14t-42 14q-137 47 -216 109.5t-79 171.5q0 119 96.5 189.5t255.5 70.5 q170 0 283 -78q37 -70 35 -138.5t-51 -68.5q-29 0 -43 41q-70 195 -250 195q-82 0 -127 -38t-45 -105q0 -80 53 -124t162 -83q8 -2 45 -15.5t49 -17.5t46 -16.5t47 -20.5t41 -23.5t40 -26.5t30.5 -30.5t27 -38t14.5 -42t6 -50.5q0 -125 -108.5 -199.5t-280.5 -74.5z" glyph-name="s" horiz-adv-x="866" unicode="s"/><glyph d="M410 -10q-109 0 -173.5 59.5t-64.5 181.5v568q0 37 -11 50t-34 13h-96v45q154 59 241 215q8 16 27 17h18q20 0 21 -21l-2 -141q0 -33 19.5 -43t82.5 -10h158v-74l-158 8q-63 2 -82.5 -10t-19.5 -53v-541q0 -98 27.5 -147.5t99.5 -49.5q57 0 115 37l18 -28 q-71 -76 -186 -76z" glyph-name="t" horiz-adv-x="657" unicode="t"/><glyph d="M483 -12q-127 0 -213 83t-86 248v410q0 74 -25.5 98.5t-107.5 20.5v39l225 51q72 16 72 -59v-514q0 -125 61.5 -202t172 -77t178 78t67.5 201v364q0 74 -25.5 98.5t-107.5 20.5v39l226 51q72 16 71 -59v-742q0 -88 105 -69v-25q-41 -55 -138 -55q-119 0 -135 123 q-4 25 -18 24.5t-27 -12.5l-16 -17q-14 -14 -24.5 -22t-31 -24.5t-42 -26.5t-50 -21.5t-61.5 -17.5t-70 -6z" glyph-name="u" horiz-adv-x="1144" unicode="u"/><glyph d="M463 0l-279 692q-39 98 -68.5 131t-95.5 58v43h408v-43q-84 -25 -95 -56.5t27 -132.5l179 -438q14 -35 24 -45t21.5 1t25.5 46l88 223q68 170 80.5 252t-10.5 106.5t-92 43.5v43h364v-43q-90 -25 -128 -59t-74 -130l-279 -692h-96z" glyph-name="v" horiz-adv-x="1060" unicode="v"/><glyph d="M457 0l-273 692q-37 96 -66.5 130t-97.5 59v43h404v-43q-84 -25 -95.5 -56.5t29.5 -132.5l170 -436q14 -35 25.5 -46t23 0t23.5 46l64 178q61 168 10 297q-25 61 -56.5 93t-95.5 57v43h402v-43q-82 -25 -93.5 -56.5t27.5 -132.5l172 -436q14 -35 25.5 -46t23 0t23.5 46 l78 223q49 135 68.5 207t12 114t-28 54t-73.5 27v43h365v-43q-90 -25 -126 -59t-75 -130l-272 -692h-95l-204 520l-203 -520h-92z" glyph-name="w" horiz-adv-x="1544" unicode="w"/><glyph d="M31 0v43q94 25 148 63.5t140 149.5l130 170l-193 270q-63 88 -108.5 127t-108.5 58v43h410v-43q-55 -14 -69.5 -37t-1.5 -53.5t60 -94.5l109 -149q94 125 126 192.5t16.5 96t-75.5 45.5v43h371v-43q-94 -25 -147.5 -64t-139.5 -149l-123 -162l197 -277q61 -88 106.5 -127 t110.5 -59v-43h-409v43q55 14 69.5 36.5t1 54.5t-60.5 95l-113 154q-74 -96 -109.5 -156.5t-42 -98.5t12 -55.5t63.5 -29.5v-43h-370z" glyph-name="x" horiz-adv-x="1019" unicode="x"/><glyph d="M244 -406q-76 0 -120 35t-44 90q0 45 29.5 73t74.5 28q39 0 57.5 -23.5t20.5 -52.5t13.5 -52.5t39.5 -23.5q63 0 123 152q47 121 -8 268l-246 604q-39 98 -68.5 131t-95.5 58v43h408v-43q-84 -25 -95 -56.5t29 -132.5l183 -448q14 -31 24.5 -40t21.5 1t25 41l91 233 q51 129 73.5 204t13 115t-31 54t-74.5 29v43h363v-43q-88 -25 -126 -59t-75 -130l-344 -850q-53 -129 -105.5 -188.5t-156.5 -59.5z" glyph-name="y" horiz-adv-x="1071" unicode="y"/><glyph d="M31 0l577 825q23 37 -18 37h-285q-70 0 -109.5 -40t-66.5 -122h-43l37 224h749l-575 -824q-10 -16 -5 -27.5t23 -11.5h303q70 0 110 40t69 122h43l-37 -223h-772z" glyph-name="z" horiz-adv-x="903" unicode="z"/><glyph d="M463 -340q-98 39 -153.5 109.5t-71 142.5t-15.5 176v371q0 45 -24.5 66.5t-106.5 58.5v43q82 37 106.5 58.5t24.5 66.5v370q0 104 15.5 176t71 142.5t153.5 109.5l26 -55q-68 -35 -93 -124t-25 -249v-383q0 -82 -148 -131v-6q74 -25 111 -53.5t37 -75.5v-385 q0 -160 25.5 -249t92.5 -124z" glyph-name="braceleft" horiz-adv-x="540" unicode="{"/><glyph d="M205 -440v2078h55v-2078h-55z" glyph-name="bar" horiz-adv-x="464" unicode="|"/><glyph d="M78 -340l-27 55q68 35 94.5 125t26.5 248v385q0 47 37 76t108 53v6q-145 49 -145 131v383q0 158 -26.5 248t-94.5 125l27 55q98 -39 153.5 -109.5t70.5 -142t15 -176.5v-370q0 -45 25 -66.5t107 -58.5v-43q-82 -37 -107 -58.5t-25 -66.5v-371q0 -104 -15 -176 t-70.5 -142.5t-153.5 -109.5z" glyph-name="braceright" horiz-adv-x="540" unicode="}"/><glyph d="M676 371q-98 0 -240.5 72.5t-185.5 72.5q-41 0 -69.5 -27.5t-28.5 -78.5h-50q0 117 62.5 180t157.5 63q96 0 238 -72.5t188 -72.5q41 0 69.5 27.5t28.5 78.5h49q0 -117 -61.5 -180t-157.5 -63z" glyph-name="asciitilde" horiz-adv-x="997" unicode="~"/><glyph d="M211 934q45 0 78 -34t33 -79t-33 -77.5t-78 -32.5q-47 0 -79 31.5t-32 78.5t33 80t78 33zM182 547h56q4 -197 48 -447t44 -331q0 -70 -32 -111t-87 -41q-57 0 -88 40t-31 112q0 82 43 331.5t47 446.5z" glyph-name="exclamdown" horiz-adv-x="421" unicode="¡"/><glyph d="M891 231l35 -28q-33 -80 -133.5 -147.5t-247.5 -67.5q-80 0 -158 22l-37 -135h-43l41 150q-129 51 -208 164.5t-79 273.5q0 221 145.5 350t352.5 129q27 0 39 -2l33 123h43l-35 -127q125 -18 198.5 -88t73.5 -146q0 -43 -25.5 -70.5t-66.5 -27.5q-82 0 -90 90 q-16 125 -108 170l-195 -708q96 -55 215 -56q166 0 250 131zM229 532q0 -231 162 -352l191 699q-27 8 -68 8q-131 0 -208 -94.5t-77 -260.5z" glyph-name="cent" horiz-adv-x="997" unicode="¢"/><glyph d="M971 129q-18 -96 6 -129h-895v115q109 63 160 118.5t51 131.5q0 35 -14 88h-197v41h182q-14 41 -60 134t-73 171t-27 153q0 160 118 256.5t323 96.5q219 0 323.5 -105.5t104.5 -247.5q0 -78 -32 -126t-91 -48q-37 0 -64.5 19.5t-27.5 64.5q0 23 15 61t15 81 q0 104 -68.5 177.5t-182.5 73.5q-119 0 -179.5 -76.5t-60.5 -187.5q0 -98 74.5 -262t87.5 -235h364v-41h-360v-15q0 -109 -66.5 -170t-199.5 -121h446q150 0 217.5 31t104.5 119h39z" glyph-name="sterling" horiz-adv-x="1085" unicode="£"/><glyph d="M975 467q0 -154 -96 -272l125 -125l-58 -58l-127 123q-117 -96 -266 -96q-154 0 -268 96l-123 -123l-60 58l125 123q-98 119 -98 274.5t96 269.5l-123 119l60 62l121 -123q115 98 270 98q152 0 270 -98l123 123l58 -62l-123 -121q94 -116 94 -268zM551 119 q139 0 240.5 103.5t101.5 244.5q0 143 -101.5 244.5t-240.5 101.5q-143 0 -240.5 -101.5t-97.5 -244.5t97.5 -245.5t240.5 -102.5z" glyph-name="currency" horiz-adv-x="1105" unicode="¤"/><glyph d="M895 1272h377v-43q-74 -8 -120 -43t-105 -129l-273 -436q-14 -23 -20 -52h315v-39h-321q-2 -10 -3 -34v-90h324v-41h-324v-218q0 -55 34 -73.5t130 -30.5v-43h-514v43q96 12 130 30.5t34 73.5v218h-321v41h321v90q0 14 -4 34h-317v39h303q-8 18 -25 43l-268 424 q-61 96 -107.5 135t-109.5 58v43h454v-43q-80 -16 -91 -49t32 -97l266 -421q14 -18 29 0l252 413q39 55 29.5 88t-35 46.5t-72.5 19.5v43z" glyph-name="yen" horiz-adv-x="1302" unicode="¥"/><glyph d="M205 924v714h55v-714h-55zM205 -440v714h55v-714h-55z" glyph-name="brokenbar" horiz-adv-x="464" unicode="¦"/><glyph d="M745 178q180 -98 181 -266q0 -162 -133.5 -242t-323.5 -80q-199 0 -348 93q-39 96 -36 185t44 89q20 0 29 -23q49 -135 148.5 -210.5t228.5 -73.5q104 2 164.5 52t60.5 151q0 29 -4 52t-17.5 43.5t-22.5 36t-34 31t-36 23.5t-46 22.5t-47 18.5t-54 18.5t-53 18.5 q-174 61 -269 144t-95 218q0 172 174 238q-168 104 -168 274q0 139 110.5 226.5t305.5 87.5q188 0 325 -86q39 -96 37 -185.5t-43 -89.5q-23 0 -26 23q-45 135 -139.5 207.5t-208.5 72.5q-106 0 -157.5 -58.5t-51.5 -141.5q0 -104 69.5 -161t204.5 -102q203 -70 274 -116 q143 -92 144 -244q-1 -178 -187 -246zM236 534.5q0 -104.5 67.5 -158.5t206.5 -104q150 -53 182 -67q74 51 74 160q0 57 -21.5 100t-67.5 71.5t-88 45t-112 39.5q-18 6 -26 8q-90 31 -150 63q-65 -53 -65 -157.5z" glyph-name="section" horiz-adv-x="1003" unicode="§"/><glyph d="M205 1163q-41 0 -72 32t-31 73t31 71.5t72 30.5t71.5 -30.5t30.5 -71.5t-30.5 -73t-71.5 -32zM582 1163q-41 0 -72 32t-31 73t31 71.5t72 30.5t71.5 -30.5t30.5 -71.5t-30.5 -73t-71.5 -32z" glyph-name="dieresis" horiz-adv-x="786" unicode="¨"/><glyph d="M737.5 -20q-288.5 0 -482.5 189t-194 474q0 283 194 472.5t482.5 189.5t482 -189.5t193.5 -472.5q0 -285 -193.5 -474t-482 -189zM737 35q264 0 441.5 174t177.5 434q0 258 -177.5 433t-441.5 175t-440 -175t-176 -433q0 -260 176 -434t440 -174zM756 252 q-164 0 -281 101.5t-117 277.5q0 182 121 282.5t285 100.5q127 0 213 -62.5t86 -142.5q0 -41 -22.5 -70.5t-71.5 -29.5q-45 0 -71 28.5t-26 63.5q0 162 -133 162q-88 0 -138 -69t-50 -192q0 -154 87 -248t218 -94q106 0 174 84l35 -26q-31 -61 -109.5 -113.5t-199.5 -52.5z " glyph-name="copyright" horiz-adv-x="1474" unicode="©"/><glyph d="M264 684q-80 -2 -128 34t-48 107q0 80 77 127t298 78v29q0 174 -129 174q-33 0 -52.5 -5t-26.5 -18.5t-9 -22.5t-2 -30q0 -41 -12.5 -60.5t-53.5 -19.5q-57 0 -57 53q0 61 70.5 100.5t168.5 39.5q215 0 215 -209v-256q0 -37 18.5 -51.5t47.5 0.5v-39q-61 -25 -121.5 4 t-56.5 96q-20 -49 -75.5 -89t-123.5 -42zM293 743q63 0 116.5 55.5t53.5 116.5v78q-84 -12 -139.5 -32.5t-79 -45t-30.5 -44t-7 -44.5q0 -39 23.5 -61.5t62.5 -22.5zM111 498v55h510v-55h-510z" glyph-name="ordfeminine" horiz-adv-x="733" unicode="ª"/><glyph d="M102 608l283 248l29 -22l-160 -226l160 -227l-29 -23zM401 608l283 248l29 -22l-160 -226l160 -227l-29 -23z" glyph-name="guillemotleft" horiz-adv-x="815" unicode="«"/><glyph d="M922 293v407h-820v56h875v-463h-55z" glyph-name="logicalnot" horiz-adv-x="1079" unicode="¬"/><glyph d="M102 510v53h553v-53h-553z" glyph-name="uni00AD" horiz-adv-x="757" unicode="­"/><glyph d="M737.5 -20q-288.5 0 -482.5 189t-194 474q0 283 194 472.5t482.5 189.5t482 -189.5t193.5 -472.5q0 -285 -193.5 -474t-482 -189zM737 35q264 0 441.5 174t177.5 434q0 258 -177.5 433t-441.5 175t-440 -175t-176 -433q0 -260 176 -434t440 -174zM367 256v37q80 12 79 76 v546q0 63 -79 76v37h391q139 0 221 -55t82 -156q0 -143 -191 -192q-6 -2 -6 -7.5t6 -7.5q111 -27 148 -155q14 -53 23.5 -80t31 -54.5t47.5 -27.5v-37h-65q-86 0 -130 47t-83 164q-41 123 -150 123q-59 0 -80.5 -15.5t-21.5 -50.5v-155q0 -63 82 -76v-37h-305zM659 645h93 q160 0 159 170q0 158 -143 158h-123q-55 0 -55 -58v-204q0 -35 15 -50.5t54 -15.5z" glyph-name="registered" horiz-adv-x="1474" unicode="®"/><glyph d="M152 1202q-33 0 -33 29v18q0 29 33 29h596q33 0 32 -29v-18q0 -29 -32 -29h-596z" glyph-name="macron" horiz-adv-x="899" unicode="¯"/><glyph d="M282.5 874q-94.5 0 -158 62.5t-63.5 153t62.5 153t159 62.5t159 -62.5t62.5 -153t-63.5 -153t-158 -62.5zM282.5 936q61.5 0 104.5 44t43 109.5t-43 109.5t-104.5 44t-104.5 -43t-43 -110.5t43 -110.5t104.5 -43z" glyph-name="degree" horiz-adv-x="565" unicode="°"/><glyph d="M510 750h350v-56h-350v-352h-55v352h-353v56h353v352h55v-352zM102 0v55h758v-55h-758z" glyph-name="plusminus" horiz-adv-x="962" unicode="±"/><glyph d="M82 776q12 51 33.5 91t57.5 73t56.5 47t61.5 41q31 20 45 30.5t29.5 36t15.5 56.5q0 41 -19.5 71.5t-62.5 30.5q-33 0 -57.5 -21.5t-24.5 -62.5q0 -12 5 -32.5t1 -34.5q-41 -35 -79 -20.5t-38 65.5q0 55 51.5 102t145.5 47q88 0 137 -39.5t49 -105.5q0 -35 -12 -63.5 t-39.5 -51t-45 -34t-52.5 -31.5q-143 -72 -174 -113h209q53 0 82 43h51l-21 -96q-6 -29 -43 -29h-362z" glyph-name="uni00B2" horiz-adv-x="589" unicode="²"/><glyph d="M270 766q-88 0 -143 44t-55 110q0 57 49 57q29 0 39 -12.5t13 -40t5 -35.5q29 -80 98 -80q45 0 72 34t27 91q0 72 -48 90t-100 -12l-18 37l33 12q100 37 100 106q0 86 -74 86q-55 0 -71.5 -46t-1.5 -89q-47 -20 -73 -4t-26 53q0 53 48.5 91t129.5 38q80 0 127.5 -35.5 t47.5 -86.5q0 -76 -99 -109q66 -2 101.5 -39t35.5 -90q0 -74 -62.5 -122t-154.5 -48z" glyph-name="uni00B3" horiz-adv-x="569" unicode="³"/><glyph d="M109 1090q-12 23 16 51l203 215q72 78 129 16q25 -20 13.5 -60t-62.5 -71l-240 -145q-47 -24 -59 -6z" glyph-name="acute" horiz-adv-x="575" unicode="´"/><glyph d="M600 -190v40q70 14 97.5 34t27.5 73v379q0 57 -25.5 82.5t-87.5 25.5h-80q-221 0 -346 115t-125 305.5t124 299t347 108.5h916v-41q-70 -14 -96.5 -33.5t-26.5 -73.5v-1167q0 -53 26.5 -72.5t96.5 -34.5v-40h-848zM1024 -150q115 0 115 107v1167q0 106 -115 107 q-113 0 -113 -107v-1167q0 -107 113 -107z" glyph-name="paragraph" horiz-adv-x="1509" unicode="¶"/><glyph d="M213 498q-45 0 -78 32.5t-33 79.5q0 45 33 78t78 33t79 -33t34 -78q0 -47 -33 -79.5t-80 -32.5z" glyph-name="periodcentered" horiz-adv-x="428" unicode="·"/><glyph d="M246 -426q-100 0 -157.5 38t-57.5 91q0 49 40 65.5t79 -18.5q0 -135 90 -135q55 0 88.5 43t33.5 100q0 47 -26.5 78t-71.5 31q-25 0 -54.5 -10.5t-39.5 -10.5q-23 0 -29 15.5t6 38.5l50 100h108l-47 -98q80 20 149.5 -24t69.5 -124q0 -82 -68.5 -131t-162.5 -49z" glyph-name="cedilla" horiz-adv-x="507" unicode="¸"/><glyph d="M66 776v29l12 6q14 4 17 5t13.5 7t13.5 12.5t7 16.5t4 22v316h-72v33l129 63q43 23 43 -31v-381q0 -10 2.5 -19t6.5 -15t8 -10.5t11 -9.5t10 -6t12.5 -5t11.5 -4v-29h-229z" glyph-name="uni00B9" horiz-adv-x="356" unicode="¹"/><glyph d="M365 686q-115 0 -196 80t-81 211q0 133 81 212t196 81q117 2 197.5 -79t80.5 -214q0 -131 -80.5 -211t-197.5 -80zM391 727q61 0 99 54.5t38 156.5q0 121 -55 206t-131 85q-61 0 -100 -56.5t-39 -160.5q0 -117 55 -201t133 -84zM111 498v55h510v-55h-510z" glyph-name="ordmasculine" horiz-adv-x="729" unicode="º"/><glyph d="M414 608l-285 -250l-27 23l160 227l-160 226l27 22zM713 608l-285 -250l-27 23l160 227l-160 226l27 22z" glyph-name="guillemotright" horiz-adv-x="815" unicode="»"/><glyph d="M39 -10l901 1313h90l-899 -1313h-92zM66 776v29l12 6q14 4 17 5t13.5 7t13.5 12.5t7 16.5t4 22v316h-72v33l129 63q43 23 43 -31v-381q0 -10 2.5 -19t6.5 -15t8 -10.5t11 -9.5t10 -6t12.5 -5t11.5 -4v-29h-229zM887 0v29q43 4 57 17t14 52v41h-217v62l252 317l70 -18 v-314h76v-47h-76v-41q0 -37 16.5 -51t59.5 -18v-29h-252zM821 186h137v179z" glyph-name="onequarter" horiz-adv-x="1220" unicode="¼"/><glyph d="M39 -10l901 1313h90l-899 -1313h-92zM66 776v29l12 6q14 4 17 5t13.5 7t13.5 12.5t7 16.5t4 22v316h-72v33l129 63q43 23 43 -31v-381q0 -10 2.5 -19t6.5 -15t8 -10.5t11 -9.5t10 -6t12.5 -5t11.5 -4v-29h-229zM772 0q12 51 33.5 91t57.5 73t56.5 47t61.5 41 q31 20 45 30.5t29.5 36t15.5 56.5q0 41 -19.5 71.5t-62.5 30.5q-33 0 -57.5 -21.5t-24.5 -62.5q0 -12 5.5 -32.5t0.5 -34.5q-41 -35 -78.5 -21t-37.5 66q0 55 51 102t145 47q88 0 137.5 -40t49.5 -105q0 -35 -12.5 -63.5t-40 -51t-45 -34t-52.5 -31.5q-143 -72 -174 -113 h209q53 0 82 43h51l-20 -96q-6 -29 -43 -29h-363z" glyph-name="onehalf" horiz-adv-x="1280" unicode="½"/><glyph d="M268 -10l901 1313h91l-898 -1313h-94zM270 766q-88 0 -143 44t-55 110q0 57 49 57q29 0 39 -12.5t13 -40t5 -35.5q29 -80 98 -80q45 0 72 34t27 91q0 72 -48 90t-100 -12l-18 37l33 12q100 37 100 106q0 86 -74 86q-55 0 -71.5 -46t-1.5 -89q-47 -20 -73 -4t-26 53 q0 53 48.5 91t129.5 38q80 0 127.5 -35.5t47.5 -86.5q0 -76 -99 -109q66 -2 101.5 -39t35.5 -90q0 -74 -62.5 -122t-154.5 -48zM1110 0v29q45 4 59.5 17t14.5 52v41h-219v62l252 317l69 -18v-314h76v-47h-76v-41q0 -37 16.5 -51t59.5 -18v-29h-252zM1044 186h140v179z" glyph-name="threequarters" horiz-adv-x="1443" unicode="¾"/><glyph d="M473 1145q45 0 78 -34t33 -79t-33 -77.5t-78 -32.5q-47 0 -80 32.5t-33 77.5t33 79t80 34zM506 776q8 -111 -14.5 -197.5t-59.5 -140t-76 -99.5t-66.5 -102.5t-27.5 -121.5q0 -102 63.5 -161.5t163.5 -59.5q96 0 144.5 57t48.5 135q0 31 -21.5 83t-21.5 81 q0 33 30.5 59.5t71.5 26.5q51 0 87 -49t36 -123q0 -147 -113.5 -241.5t-299.5 -94.5q-176 0 -277.5 84t-101.5 223q0 80 34.5 141.5t87 105.5t104.5 92t92 125t48 177h68z" glyph-name="questiondown" horiz-adv-x="935" unicode="¿"/><glyph d="M803 1438q-14 -20 -60 6l-239 145q-51 31 -62.5 71t13.5 60q55 59 127 -16l202 -215q31 -28 19 -51zM41 0v43q72 14 110.5 46t71.5 104l395 923q41 94 41 156l117 12l451 -1040q49 -115 82.5 -153t109.5 -48v-43h-461v43q90 14 106.5 46t-13.5 91l-60 133q-35 74 -119 74 h-397q-90 0 -117 -61l-59 -136q-51 -125 131 -147v-43h-389zM463 451h418q20 0 31.5 14t0.5 37l-221 514q-20 49 -41 -2l-217 -508q-10 -27 -2 -41t31 -14z" glyph-name="Agrave" horiz-adv-x="1460" unicode="À"/><glyph d="M651 1438q-12 23 17 51l202 215q72 78 129 16q25 -20 13.5 -60t-62.5 -71l-239 -145q-48 -24 -60 -6zM41 0v43q72 14 110.5 46t71.5 104l395 923q41 94 41 156l117 12l451 -1040q49 -115 82.5 -153t109.5 -48v-43h-461v43q90 14 106.5 46t-13.5 91l-60 133 q-35 74 -119 74h-397q-90 0 -117 -61l-59 -136q-51 -125 131 -147v-43h-389zM463 451h418q20 0 31.5 14t0.5 37l-221 514q-20 49 -41 -2l-217 -508q-10 -27 -2 -41t31 -14z" glyph-name="Aacute" horiz-adv-x="1460" unicode="Á"/><glyph d="M711 1757l247 -282l-22 -29l-225 160l-228 -160l-22 29zM41 0v43q72 14 110.5 46t71.5 104l395 923q41 94 41 156l117 12l451 -1040q49 -115 82.5 -153t109.5 -48v-43h-461v43q90 14 106.5 46t-13.5 91l-60 133q-35 74 -119 74h-397q-90 0 -117 -61l-59 -136 q-51 -125 131 -147v-43h-389zM463 451h418q20 0 31.5 14t0.5 37l-221 514q-20 49 -41 -2l-217 -508q-10 -27 -2 -41t31 -14z" glyph-name="Acircumflex" horiz-adv-x="1460" unicode="Â"/><glyph d="M868 1475q-88 0 -216 64.5t-167 64.5q-35 0 -60.5 -25t-25.5 -70h-45q0 102 56.5 158.5t140.5 56.5q86 0 214 -64.5t169 -64.5q37 0 61.5 26t24.5 69h45q0 -102 -56.5 -158.5t-140.5 -56.5zM41 0v43q72 14 110.5 46t71.5 104l395 923q41 94 41 156l117 12l451 -1040 q49 -115 82.5 -153t109.5 -48v-43h-461v43q90 14 106.5 46t-13.5 91l-60 133q-35 74 -119 74h-397q-90 0 -117 -61l-59 -136q-51 -125 131 -147v-43h-389zM463 451h418q20 0 31.5 14t0.5 37l-221 514q-20 49 -41 -2l-217 -508q-10 -27 -2 -41t31 -14z" glyph-name="Atilde" horiz-adv-x="1460" unicode="Ã"/><glyph d="M520 1511q-41 0 -71.5 32t-30.5 73t30.5 71.5t71.5 30.5t72 -30.5t31 -71.5t-31 -73t-72 -32zM897 1511q-41 0 -71.5 32t-30.5 73t30.5 71.5t71.5 30.5t71.5 -30.5t30.5 -71.5t-30.5 -73t-71.5 -32zM41 0v43q72 14 110.5 46t71.5 104l395 923q41 94 41 156l117 12 l451 -1040q49 -115 82.5 -153t109.5 -48v-43h-461v43q90 14 106.5 46t-13.5 91l-60 133q-35 74 -119 74h-397q-90 0 -117 -61l-59 -136q-51 -125 131 -147v-43h-389zM463 451h418q20 0 31.5 14t0.5 37l-221 514q-20 49 -41 -2l-217 -508q-10 -27 -2 -41t31 -14z" glyph-name="Adieresis" horiz-adv-x="1460" unicode="Ä"/><glyph d="M708.5 1477q-77.5 0 -129 53t-51.5 125q0 76 51.5 127t129 51t130 -52t52.5 -126q0 -72 -52.5 -125t-130 -53zM709 1550q43 0 71.5 29t28.5 76q0 45 -28.5 74.5t-71.5 29.5t-72 -29.5t-29 -74.5q0 -47 29 -76t72 -29zM41 0v43q72 14 110.5 46t71.5 104l395 923 q41 94 41 156l117 12l451 -1040q49 -115 82.5 -153t109.5 -48v-43h-461v43q90 14 106.5 46t-13.5 91l-60 133q-35 74 -119 74h-397q-90 0 -117 -61l-59 -136q-51 -125 131 -147v-43h-389zM463 451h418q20 0 31.5 14t0.5 37l-221 514q-20 49 -41 -2l-217 -508q-10 -27 -2 -41 t31 -14z" glyph-name="Aring" horiz-adv-x="1460" unicode="Å"/><glyph d="M1845 248h39q-47 -90 -61 -219q-4 -29 -33 -29h-956v43q68 12 95 31.5t27 72.5v236h-442q-76 0 -102 -43l-86 -139q-82 -131 106 -158v-43h-391v43q72 14 116 49t91 113l555 876q35 53 44 97.5t-7 48.5q-2 2 -6 2v43h927q31 0 33 -25q12 -104 39 -223h-39 q-39 96 -99.5 143t-162.5 47h-262q-66 0 -96.5 -20t-30.5 -76v-350q0 -55 29.5 -73.5t97.5 -18.5h200q88 0 122 34.5t48 112.5h31v-354h-31q-14 78 -47.5 113.5t-122.5 35.5h-200q-68 0 -97.5 -19t-29.5 -73v-370q0 -57 40 -78t152 -19l234 2q102 2 149 30t78 81zM537 442 h419v682q0 35 -12 58l-434 -688q-14 -27 -6 -39.5t33 -12.5z" glyph-name="AE" horiz-adv-x="1923" unicode="Æ"/><glyph d="M723 -20h-4l-37 -78q80 20 149.5 -24t69.5 -124q0 -82 -68.5 -131t-162.5 -49q-100 0 -157.5 38t-57.5 91q0 49 38.5 65.5t79.5 -18.5q0 -135 91 -135q55 0 88.5 43t33.5 100q0 47 -26.5 78t-71.5 31q-25 0 -54.5 -10.5t-39.5 -10.5q-23 0 -29 15.5t6 38.5l43 88 q-236 35 -394.5 210t-158.5 443q0 303 200 483.5t478 180.5q215 0 349.5 -102.5t134.5 -223.5q0 -55 -32 -91t-85 -36q-47 0 -78 33t-35 94q-8 102 -88 181t-233 79q-190 0 -307 -134t-117 -366q0 -281 171 -457t421 -176q209 0 368 179l29 -25q-55 -100 -187 -190t-327 -90 z" glyph-name="Ccedilla" horiz-adv-x="1308" unicode="Ç"/><glyph d="M674 1438q-14 -20 -60 6l-239 145q-51 31 -62.5 71t13.5 60q55 59 127 -16l202 -215q31 -28 19 -51zM61 0v43q68 12 95.5 31.5t27.5 72.5v977q0 53 -27.5 73t-95.5 32v43h930q29 0 31 -25q12 -106 41 -223h-39q-39 96 -100.5 143t-163.5 47h-262q-66 0 -96.5 -20 t-30.5 -76v-350q0 -55 29.5 -73.5t97.5 -18.5h202q88 0 121 33.5t47 113.5h33v-354h-33q-14 78 -47 113.5t-121 35.5h-202q-66 0 -96.5 -19t-30.5 -73v-370q0 -57 40 -78t152 -19l236 2q102 2 148 30t77 81l49 76h41q-45 -82 -61 -219q-4 -29 -33 -29h-959z" glyph-name="Egrave" horiz-adv-x="1150" unicode="È"/><glyph d="M522 1438q-12 23 17 51l202 215q72 78 129 16q25 -20 13.5 -60t-62.5 -71l-239 -145q-48 -24 -60 -6zM61 0v43q68 12 95.5 31.5t27.5 72.5v977q0 53 -27.5 73t-95.5 32v43h930q29 0 31 -25q12 -106 41 -223h-39q-39 96 -100.5 143t-163.5 47h-262q-66 0 -96.5 -20 t-30.5 -76v-350q0 -55 29.5 -73.5t97.5 -18.5h202q88 0 121 33.5t47 113.5h33v-354h-33q-14 78 -47 113.5t-121 35.5h-202q-66 0 -96.5 -19t-30.5 -73v-370q0 -57 40 -78t152 -19l236 2q102 2 148 30t77 81l49 76h41q-45 -82 -61 -219q-4 -29 -33 -29h-959z" glyph-name="Eacute" horiz-adv-x="1150" unicode="É"/><glyph d="M582 1757l247 -282l-22 -29l-225 160l-228 -160l-22 29zM61 0v43q68 12 95.5 31.5t27.5 72.5v977q0 53 -27.5 73t-95.5 32v43h930q29 0 31 -25q12 -106 41 -223h-39q-39 96 -100.5 143t-163.5 47h-262q-66 0 -96.5 -20t-30.5 -76v-350q0 -55 29.5 -73.5t97.5 -18.5h202 q88 0 121 33.5t47 113.5h33v-354h-33q-14 78 -47 113.5t-121 35.5h-202q-66 0 -96.5 -19t-30.5 -73v-370q0 -57 40 -78t152 -19l236 2q102 2 148 30t77 81l49 76h41q-45 -82 -61 -219q-4 -29 -33 -29h-959z" glyph-name="Ecircumflex" horiz-adv-x="1150" unicode="Ê"/><glyph d="M393 1511q-41 0 -71.5 32t-30.5 73t30.5 71.5t71.5 30.5t72 -30.5t31 -71.5t-31 -73t-72 -32zM770 1511q-41 0 -71.5 32t-30.5 73t30.5 71.5t71.5 30.5t71.5 -30.5t30.5 -71.5t-30.5 -73t-71.5 -32zM61 0v43q68 12 95.5 31.5t27.5 72.5v977q0 53 -27.5 73t-95.5 32v43 h930q29 0 31 -25q12 -106 41 -223h-39q-39 96 -100.5 143t-163.5 47h-262q-66 0 -96.5 -20t-30.5 -76v-350q0 -55 29.5 -73.5t97.5 -18.5h202q88 0 121 33.5t47 113.5h33v-354h-33q-14 78 -47 113.5t-121 35.5h-202q-66 0 -96.5 -19t-30.5 -73v-370q0 -57 40 -78t152 -19 l236 2q102 2 148 30t77 81l49 76h41q-45 -82 -61 -219q-4 -29 -33 -29h-959z" glyph-name="Edieresis" horiz-adv-x="1150" unicode="Ë"/><glyph d="M369 1438q-14 -20 -60 6l-239 145q-53 31 -63.5 71t13.5 60q55 59 127 -16l203 -215q31 -28 19 -51zM61 0v43q68 12 95.5 31.5t27.5 72.5v977q0 53 -27.5 73t-95.5 32v43h435v-43q-70 -12 -97.5 -31.5t-27.5 -73.5v-977q0 -53 27.5 -72.5t97.5 -31.5v-43h-435z" glyph-name="Igrave" horiz-adv-x="557" unicode="Ì"/><glyph d="M217 1438q-12 23 16 51l203 215q72 78 129 16q25 -20 13.5 -60t-62.5 -71l-240 -145q-47 -24 -59 -6zM61 0v43q68 12 95.5 31.5t27.5 72.5v977q0 53 -27.5 73t-95.5 32v43h435v-43q-70 -12 -97.5 -31.5t-27.5 -73.5v-977q0 -53 27.5 -72.5t97.5 -31.5v-43h-435z" glyph-name="Iacute" horiz-adv-x="557" unicode="Í"/><glyph d="M276 1757l248 -282l-22 -29l-226 160l-227 -160l-22 29zM61 0v43q68 12 95.5 31.5t27.5 72.5v977q0 53 -27.5 73t-95.5 32v43h435v-43q-70 -12 -97.5 -31.5t-27.5 -73.5v-977q0 -53 27.5 -72.5t97.5 -31.5v-43h-435z" glyph-name="Icircumflex" horiz-adv-x="557" unicode="Î"/><glyph d="M88 1511q-41 0 -71.5 32t-30.5 73t30.5 71.5t71.5 30.5t71.5 -30.5t30.5 -71.5t-30.5 -73t-71.5 -32zM465 1511q-41 0 -72 32t-31 73t31 71.5t72 30.5t71.5 -30.5t30.5 -71.5t-30.5 -73t-71.5 -32zM61 0v43q68 12 95.5 31.5t27.5 72.5v977q0 53 -27.5 73t-95.5 32v43h435 v-43q-70 -12 -97.5 -31.5t-27.5 -73.5v-977q0 -53 27.5 -72.5t97.5 -31.5v-43h-435z" glyph-name="Idieresis" horiz-adv-x="557" unicode="Ï"/><glyph d="M541 1272q139 0 256.5 -32t218 -100.5t158 -194.5t57.5 -298q0 -164 -53.5 -290t-146.5 -201.5t-211 -113.5t-255 -38q-39 0 -144.5 5t-148.5 5q-90 0 -211 -14v43q68 12 95.5 31.5t27.5 72.5v465h-121v47h121v467q0 51 -27.5 71t-95.5 32v43h480zM551 57q172 0 284.5 84 t156.5 211t44 295q0 123 -25.5 222.5t-82 179t-154.5 124t-231 44.5h-45q-66 0 -96.5 -18.5t-30.5 -70.5v-469h252v-47h-252v-465q0 -90 180 -90z" glyph-name="Eth" horiz-adv-x="1312" unicode="Ð"/><glyph d="M813 1475q-88 0 -216 64.5t-167 64.5q-35 0 -60.5 -25t-25.5 -70h-45q0 102 56.5 158.5t140.5 56.5q86 0 214 -64.5t169 -64.5q35 0 60.5 26t25.5 69h45q0 -102 -56.5 -158.5t-140.5 -56.5zM61 0v43q70 12 98.5 31.5t28.5 72.5v977q0 53 -28.5 73t-98.5 32v43h271 l747 -975v827q0 53 -27.5 73t-95.5 32v43h320v-43q-70 -12 -98.5 -31.5t-28.5 -73.5v-1124h-70l-823 1075v-928q0 -53 27.5 -72.5t95.5 -31.5v-43h-318z" glyph-name="Ntilde" horiz-adv-x="1335" unicode="Ñ"/><glyph d="M778 1438q-14 -20 -59 6l-242 145q-51 31 -62.5 71t13.5 60q57 61 129 -16l203 -215q28 -28 18 -51zM705 -20q-276 0 -460 184t-184 467q0 287 192.5 480.5t477.5 193.5q276 0 459.5 -184.5t183.5 -465.5q0 -289 -192 -482t-477 -193zM758 47q168 0 287.5 131t119.5 404 q0 287 -141 471t-346 184q-168 0 -288 -130t-120 -400q0 -289 141.5 -474.5t346.5 -185.5z" glyph-name="Ograve" horiz-adv-x="1435" unicode="Ò"/><glyph d="M639 1438q-12 23 16 51l203 215q72 78 129 16q25 -20 13.5 -60t-62.5 -71l-240 -145q-47 -24 -59 -6zM705 -20q-276 0 -460 184t-184 467q0 287 192.5 480.5t477.5 193.5q276 0 459.5 -184.5t183.5 -465.5q0 -289 -192 -482t-477 -193zM758 47q168 0 287.5 131t119.5 404 q0 287 -141 471t-346 184q-168 0 -288 -130t-120 -400q0 -289 141.5 -474.5t346.5 -185.5z" glyph-name="Oacute" horiz-adv-x="1435" unicode="Ó"/><glyph d="M698 1757l248 -282l-22 -29l-226 160l-227 -160l-22 29zM705 -20q-276 0 -460 184t-184 467q0 287 192.5 480.5t477.5 193.5q276 0 459.5 -184.5t183.5 -465.5q0 -289 -192 -482t-477 -193zM758 47q168 0 287.5 131t119.5 404q0 287 -141 471t-346 184q-168 0 -288 -130 t-120 -400q0 -289 141.5 -474.5t346.5 -185.5z" glyph-name="Ocircumflex" horiz-adv-x="1435" unicode="Ô"/><glyph d="M846 1475q-88 0 -216 64.5t-167 64.5q-35 0 -60.5 -25t-25.5 -70h-45q0 102 56 158.5t140 56.5q86 0 214 -64.5t169 -64.5q35 0 60.5 26t25.5 69h45q0 -102 -56 -158.5t-140 -56.5zM705 -20q-276 0 -460 184t-184 467q0 287 192.5 480.5t477.5 193.5q276 0 459.5 -184.5 t183.5 -465.5q0 -289 -192 -482t-477 -193zM758 47q168 0 287.5 131t119.5 404q0 287 -141 471t-346 184q-168 0 -288 -130t-120 -400q0 -289 141.5 -474.5t346.5 -185.5z" glyph-name="Otilde" horiz-adv-x="1435" unicode="Õ"/><glyph d="M510 1511q-41 0 -71.5 32t-30.5 73t30.5 71.5t71.5 30.5t71.5 -30.5t30.5 -71.5t-30.5 -73t-71.5 -32zM887 1511q-41 0 -72 32t-31 73t31 71.5t72 30.5t71.5 -30.5t30.5 -71.5t-30.5 -73t-71.5 -32zM705 -20q-276 0 -460 184t-184 467q0 287 192.5 480.5t477.5 193.5 q276 0 459.5 -184.5t183.5 -465.5q0 -289 -192 -482t-477 -193zM758 47q168 0 287.5 131t119.5 404q0 287 -141 471t-346 184q-168 0 -288 -130t-120 -400q0 -289 141.5 -474.5t346.5 -185.5z" glyph-name="Odieresis" horiz-adv-x="1435" unicode="Ö"/><glyph d="M678 766l-250 -250l248 -250l-37 -39l-250 250l-248 -248l-39 37l250 250l-250 248l37 39l250 -250l250 250z" glyph-name="multiply" horiz-adv-x="780" unicode="×"/><glyph d="M1163 1145q211 -188 211 -490q0 -289 -192.5 -482t-476.5 -193q-227 0 -396 129l-84 -101l-28 23l84 100q-219 188 -220 500q0 287 192.5 480.5t477.5 193.5q231 0 406 -136l75 93l29 -23zM270 707q0 -260 119 -443l643 778q-143 195 -354 195q-168 0 -288 -130 t-120 -400zM758 47q168 0 287.5 131t119.5 404q0 248 -112 430l-641 -779q137 -186 346 -186z" glyph-name="Oslash" horiz-adv-x="1435" unicode="Ø"/><glyph d="M782 1438q-14 -20 -59 6l-242 145q-51 31 -62 71t13 60q57 61 129 -16l203 -215q28 -28 18 -51zM674 -20q-225 0 -362.5 135t-137.5 401v608q0 53 -27.5 73t-95.5 32v43h434v-43q-70 -12 -97.5 -31.5t-27.5 -73.5v-569q0 -244 93.5 -365.5t261.5 -121.5q162 0 267 111.5 t105 363.5v581q0 53 -29.5 73t-101.5 32v43h332v-43q-70 -12 -98.5 -31.5t-28.5 -73.5v-596q0 -264 -127 -406t-360 -142z" glyph-name="Ugrave" horiz-adv-x="1339" unicode="Ù"/><glyph d="M643 1438q-12 23 16 51l203 215q72 78 129 16q25 -20 13.5 -60t-62.5 -71l-240 -145q-47 -24 -59 -6zM674 -20q-225 0 -362.5 135t-137.5 401v608q0 53 -27.5 73t-95.5 32v43h434v-43q-70 -12 -97.5 -31.5t-27.5 -73.5v-569q0 -244 93.5 -365.5t261.5 -121.5 q162 0 267 111.5t105 363.5v581q0 53 -29.5 73t-101.5 32v43h332v-43q-70 -12 -98.5 -31.5t-28.5 -73.5v-596q0 -264 -127 -406t-360 -142z" glyph-name="Uacute" horiz-adv-x="1339" unicode="Ú"/><glyph d="M702 1757l248 -282l-22 -29l-226 160l-227 -160l-22 29zM674 -20q-225 0 -362.5 135t-137.5 401v608q0 53 -27.5 73t-95.5 32v43h434v-43q-70 -12 -97.5 -31.5t-27.5 -73.5v-569q0 -244 93.5 -365.5t261.5 -121.5q162 0 267 111.5t105 363.5v581q0 53 -29.5 73t-101.5 32 v43h332v-43q-70 -12 -98.5 -31.5t-28.5 -73.5v-596q0 -264 -127 -406t-360 -142z" glyph-name="Ucircumflex" horiz-adv-x="1339" unicode="Û"/><glyph d="M514 1511q-41 0 -71.5 32t-30.5 73t30.5 71.5t71.5 30.5t71.5 -30.5t30.5 -71.5t-30.5 -73t-71.5 -32zM891 1511q-41 0 -72 32t-31 73t31 71.5t72 30.5t71.5 -30.5t30.5 -71.5t-30.5 -73t-71.5 -32zM674 -20q-225 0 -362.5 135t-137.5 401v608q0 53 -27.5 73t-95.5 32v43 h434v-43q-70 -12 -97.5 -31.5t-27.5 -73.5v-569q0 -244 93.5 -365.5t261.5 -121.5q162 0 267 111.5t105 363.5v581q0 53 -29.5 73t-101.5 32v43h332v-43q-70 -12 -98.5 -31.5t-28.5 -73.5v-596q0 -264 -127 -406t-360 -142z" glyph-name="Udieresis" horiz-adv-x="1339" unicode="Ü"/><glyph d="M582 1438q-12 23 18 51l203 215q72 76 127 16q25 -20 13.5 -60t-62.5 -71l-240 -145q-45 -26 -59 -6zM395 0v43q96 12 130 30.5t34 73.5v349q0 47 -43 116l-268 424q-61 96 -107.5 135t-109.5 58v43h454v-43q-80 -16 -91 -49t32 -97l266 -421q14 -18 29 0l252 413 q39 55 29.5 88t-35 46.5t-72.5 19.5v43h377v-43q-74 -8 -120 -43t-105 -129l-273 -436q-29 -47 -29 -125v-349q0 -55 34 -73.5t130 -30.5v-43h-514z" glyph-name="Yacute" horiz-adv-x="1302" unicode="Ý"/><glyph d="M616 1034q250 0 388.5 -106.5t138.5 -290.5q0 -182 -138.5 -288.5t-388.5 -106.5h-133q-59 0 -84.5 -23.5t-27.5 -77.5q2 -49 29.5 -67.5t95.5 -30.5v-43h-435v43q68 12 95.5 31.5t27.5 72.5v977q0 53 -27.5 73t-95.5 32v43h435v-43q-68 -12 -95.5 -29.5t-29.5 -66.5 q2 -98 112 -99h133zM616 305q326 0 326 332t-326 332h-133q-61 0 -86.5 -25.5t-25.5 -83.5v-446q0 -57 25.5 -83t86.5 -26h133z" glyph-name="Thorn" horiz-adv-x="1193" unicode="Þ"/><glyph d="M195 -10q-80 0 -154 47v43q131 -39 131 70v786q0 168 117 268.5t299 100.5q178 0 276.5 -91.5t98.5 -222.5q0 -207 -230 -291q133 -14 226.5 -101t93.5 -228q0 -168 -144.5 -270.5t-392.5 -102.5v57q356 8 356 318q0 131 -76.5 211t-279.5 80v55q113 0 196 64.5t83 207.5 q0 104 -56.5 182t-195.5 78q-207 0 -207 -317v-789q0 -86 -34.5 -120.5t-106.5 -34.5z" glyph-name="germandbls" horiz-adv-x="1134" unicode="ß"/><glyph d="M582 1090q-12 -18 -60 6l-239 145q-51 31 -62.5 71t12.5 60q57 61 129 -16l203 -215q29 -28 17 -51zM328 -12q-113 0 -190 56t-77 169q0 129 129 212t453 120q49 4 49 55v49q0 113 -55 176.5t-168 63.5q-172 0 -172 -150q0 -106 -90 -106q-41 0 -62.5 25.5t-21.5 68.5 q0 109 117.5 162t281.5 53q180 0 257 -81t77 -255v-469q0 -88 105 -69v-25q-41 -55 -138 -55q-127 0 -133 149q2 14 -8 14.5t-20 -14.5q-57 -70 -147.5 -109.5t-186.5 -39.5zM424 82q111 0 189.5 70.5t78.5 175.5v94q0 39 -16.5 57.5t-65.5 12.5q-373 -45 -372 -242 q0 -72 47 -120t139 -48z" glyph-name="agrave" horiz-adv-x="999" unicode="à"/><glyph d="M442 1090q-12 23 17 51l203 215q72 78 129 16q25 -20 13.5 -60t-63.5 -71l-239 -145q-48 -24 -60 -6zM328 -12q-113 0 -190 56t-77 169q0 129 129 212t453 120q49 4 49 55v49q0 113 -55 176.5t-168 63.5q-172 0 -172 -150q0 -106 -90 -106q-41 0 -62.5 25.5t-21.5 68.5 q0 109 117.5 162t281.5 53q180 0 257 -81t77 -255v-469q0 -88 105 -69v-25q-41 -55 -138 -55q-127 0 -133 149q2 14 -8 14.5t-20 -14.5q-57 -70 -147.5 -109.5t-186.5 -39.5zM424 82q111 0 189.5 70.5t78.5 175.5v94q0 39 -16.5 57.5t-65.5 12.5q-373 -45 -372 -242 q0 -72 47 -120t139 -48z" glyph-name="aacute" horiz-adv-x="999" unicode="á"/><glyph d="M500 1409l248 -283l-23 -28l-225 159l-228 -159l-22 28zM328 -12q-113 0 -190 56t-77 169q0 129 129 212t453 120q49 4 49 55v49q0 113 -55 176.5t-168 63.5q-172 0 -172 -150q0 -106 -90 -106q-41 0 -62.5 25.5t-21.5 68.5q0 109 117.5 162t281.5 53q180 0 257 -81 t77 -255v-469q0 -88 105 -69v-25q-41 -55 -138 -55q-127 0 -133 149q2 14 -8 14.5t-20 -14.5q-57 -70 -147.5 -109.5t-186.5 -39.5zM424 82q111 0 189.5 70.5t78.5 175.5v94q0 39 -16.5 57.5t-65.5 12.5q-373 -45 -372 -242q0 -72 47 -120t139 -48z" glyph-name="acircumflex" horiz-adv-x="999" unicode="â"/><glyph d="M651 1126q-88 0 -216 64.5t-167 64.5q-37 0 -61.5 -24.5t-24.5 -69.5h-45q0 102 56.5 158.5t140.5 56.5q86 0 214 -64.5t169 -64.5q35 0 60.5 25.5t25.5 68.5h45q0 -102 -56.5 -158.5t-140.5 -56.5zM328 -12q-113 0 -190 56t-77 169q0 129 129 212t453 120q49 4 49 55v49 q0 113 -55 176.5t-168 63.5q-172 0 -172 -150q0 -106 -90 -106q-41 0 -62.5 25.5t-21.5 68.5q0 109 117.5 162t281.5 53q180 0 257 -81t77 -255v-469q0 -88 105 -69v-25q-41 -55 -138 -55q-127 0 -133 149q2 14 -8 14.5t-20 -14.5q-57 -70 -147.5 -109.5t-186.5 -39.5z M424 82q111 0 189.5 70.5t78.5 175.5v94q0 39 -16.5 57.5t-65.5 12.5q-373 -45 -372 -242q0 -72 47 -120t139 -48z" glyph-name="atilde" horiz-adv-x="999" unicode="ã"/><glyph d="M311 1163q-41 0 -71.5 32t-30.5 73t30.5 71.5t71.5 30.5t72 -30.5t31 -71.5t-31 -73t-72 -32zM688 1163q-41 0 -71.5 32t-30.5 73t30.5 71.5t71.5 30.5t72 -30.5t31 -71.5t-31 -73t-72 -32zM328 -12q-113 0 -190 56t-77 169q0 129 129 212t453 120q49 4 49 55v49 q0 113 -55 176.5t-168 63.5q-172 0 -172 -150q0 -106 -90 -106q-41 0 -62.5 25.5t-21.5 68.5q0 109 117.5 162t281.5 53q180 0 257 -81t77 -255v-469q0 -88 105 -69v-25q-41 -55 -138 -55q-127 0 -133 149q2 14 -8 14.5t-20 -14.5q-57 -70 -147.5 -109.5t-186.5 -39.5z M424 82q111 0 189.5 70.5t78.5 175.5v94q0 39 -16.5 57.5t-65.5 12.5q-373 -45 -372 -242q0 -72 47 -120t139 -48z" glyph-name="adieresis" horiz-adv-x="999" unicode="ä"/><glyph d="M500 1128q-78 0 -129.5 53.5t-51.5 125.5q0 76 51.5 127t129.5 51t130 -52.5t52 -125.5q0 -72 -52 -125.5t-130 -53.5zM500 1202q43 0 71.5 29t28.5 76q0 45 -28.5 74.5t-71.5 29.5t-72 -29.5t-29 -74.5q0 -47 29 -76t72 -29zM328 -12q-113 0 -190 56t-77 169 q0 129 129 212t453 120q49 4 49 55v49q0 113 -55 176.5t-168 63.5q-172 0 -172 -150q0 -106 -90 -106q-41 0 -62.5 25.5t-21.5 68.5q0 109 117.5 162t281.5 53q180 0 257 -81t77 -255v-469q0 -88 105 -69v-25q-41 -55 -138 -55q-127 0 -133 149q2 14 -8 14.5t-20 -14.5 q-57 -70 -147.5 -109.5t-186.5 -39.5zM424 82q111 0 189.5 70.5t78.5 175.5v94q0 39 -16.5 57.5t-65.5 12.5q-373 -45 -372 -242q0 -72 47 -120t139 -48z" glyph-name="aring" horiz-adv-x="999" unicode="å"/><glyph d="M1507 215l33 -27q-39 -74 -135 -137t-240 -63q-221 0 -358 155q-27 23 -51.5 29t-39 -1t-27.5 -16.5t-17 -17.5q-59 -70 -151.5 -109.5t-192.5 -39.5q-113 0 -190 56t-77 169q0 129 130.5 212t455.5 120q49 4 49 55v43q0 111 -57 177.5t-172 66.5q-166 0 -166 -150 q0 -106 -90 -106q-39 0 -60.5 24.5t-21.5 65.5q0 100 123 160.5t278 60.5q217 0 283 -145q135 145 356 145q154 0 245 -74.5t91 -191.5q0 -100 -86 -143.5t-305 -53.5l-182 -8q-63 -2 -51 -86q20 -131 124.5 -209t245.5 -78q166 0 256 117zM870 614q-6 -59 9.5 -76.5 t56.5 -15.5l149 2q145 4 198.5 36t53.5 114q0 92 -51 152.5t-153 60.5q-115 0 -182 -73t-81 -200zM694 299v123q0 41 -16 58.5t-66 11.5q-373 -45 -372 -234q0 -72 49 -121t137 -49q111 0 189.5 62.5t78.5 148.5z" glyph-name="ae" horiz-adv-x="1611" unicode="æ"/><glyph d="M926 203q-27 -70 -113 -134.5t-211 -78.5l-43 -88q80 20 149.5 -24t69.5 -124q0 -82 -68.5 -131t-162.5 -49q-100 0 -157.5 38t-57.5 91q0 49 39 65.5t80 -18.5q0 -135 90 -135q55 0 89 43t34 100q0 47 -27 78t-72 31q-25 0 -54.5 -10.5t-39.5 -10.5q-23 0 -29 15.5 t7 38.5l45 90q-184 18 -308.5 145t-124.5 328q0 221 145.5 350t352.5 129q158 0 255 -74.5t97 -165.5q0 -43 -25.5 -70.5t-66.5 -27.5q-82 0 -90 90q-8 80 -59.5 136.5t-155.5 56.5q-131 0 -208 -94.5t-77 -260.5q0 -199 118 -315.5t294 -116.5q166 0 250 131z" glyph-name="ccedilla" horiz-adv-x="997" unicode="ç"/><glyph d="M588 1090q-14 -20 -60 6l-239 145q-51 31 -62.5 71t13.5 60q55 59 127 -16l202 -215q31 -28 19 -51zM532 -12q-199 0 -335 131t-136 348q0 219 136.5 347t339.5 128q154 0 244.5 -74.5t90.5 -191.5q0 -100 -86 -143.5t-305 -53.5l-182 -8q-63 -2 -51 -86 q20 -131 124.5 -209t245.5 -78q166 0 256 117l33 -27q-39 -74 -135.5 -137t-239.5 -63zM303 522l150 2q145 4 198.5 36t53.5 114q0 92 -51.5 152.5t-153.5 60.5q-115 0 -181.5 -73t-80.5 -200q-6 -59 9 -76.5t56 -15.5z" glyph-name="egrave" horiz-adv-x="978" unicode="è"/><glyph d="M436 1090q-12 23 17 51l202 215q72 78 129 16q25 -20 13.5 -60t-62.5 -71l-239 -145q-48 -24 -60 -6zM532 -12q-199 0 -335 131t-136 348q0 219 136.5 347t339.5 128q154 0 244.5 -74.5t90.5 -191.5q0 -100 -86 -143.5t-305 -53.5l-182 -8q-63 -2 -51 -86 q20 -131 124.5 -209t245.5 -78q166 0 256 117l33 -27q-39 -74 -135.5 -137t-239.5 -63zM303 522l150 2q145 4 198.5 36t53.5 114q0 92 -51.5 152.5t-153.5 60.5q-115 0 -181.5 -73t-80.5 -200q-6 -59 9 -76.5t56 -15.5z" glyph-name="eacute" horiz-adv-x="978" unicode="é"/><glyph d="M496 1409l247 -283l-22 -28l-225 159l-228 -159l-22 28zM532 -12q-199 0 -335 131t-136 348q0 219 136.5 347t339.5 128q154 0 244.5 -74.5t90.5 -191.5q0 -100 -86 -143.5t-305 -53.5l-182 -8q-63 -2 -51 -86q20 -131 124.5 -209t245.5 -78q166 0 256 117l33 -27 q-39 -74 -135.5 -137t-239.5 -63zM303 522l150 2q145 4 198.5 36t53.5 114q0 92 -51.5 152.5t-153.5 60.5q-115 0 -181.5 -73t-80.5 -200q-6 -59 9 -76.5t56 -15.5z" glyph-name="ecircumflex" horiz-adv-x="978" unicode="ê"/><glyph d="M305 1163q-41 0 -71.5 32t-30.5 73t30.5 71.5t71.5 30.5t72 -30.5t31 -71.5t-31 -73t-72 -32zM682 1163q-41 0 -71.5 32t-30.5 73t30.5 71.5t71.5 30.5t71.5 -30.5t30.5 -71.5t-30.5 -73t-71.5 -32zM532 -12q-199 0 -335 131t-136 348q0 219 136.5 347t339.5 128 q154 0 244.5 -74.5t90.5 -191.5q0 -100 -86 -143.5t-305 -53.5l-182 -8q-63 -2 -51 -86q20 -131 124.5 -209t245.5 -78q166 0 256 117l33 -27q-39 -74 -135.5 -137t-239.5 -63zM303 522l150 2q145 4 198.5 36t53.5 114q0 92 -51.5 152.5t-153.5 60.5q-115 0 -181.5 -73 t-80.5 -200q-6 -59 9 -76.5t56 -15.5z" glyph-name="edieresis" horiz-adv-x="978" unicode="ë"/><glyph d="M338 1090q-14 -20 -59 6l-240 145q-53 31 -64.5 71t13.5 60q59 59 129 -16l202 -215q31 -28 19 -51zM53 0v43q74 8 102.5 30.5t28.5 78.5v577q0 74 -25.5 100.5t-107.5 18.5v39l225 51q72 16 72 -59v-727q0 -55 29 -78t104 -31v-43h-428z" glyph-name="igrave" unicode="ì"/><glyph d="M186 1090q-12 23 17 51l203 215q72 78 129 16q25 -20 13.5 -60t-63.5 -71l-239 -145q-48 -24 -60 -6zM53 0v43q74 8 102.5 30.5t28.5 78.5v577q0 74 -25.5 100.5t-107.5 18.5v39l225 51q72 16 72 -59v-727q0 -55 29 -78t104 -31v-43h-428z" glyph-name="iacute" unicode="í"/><glyph d="M244 1409l248 -283l-23 -28l-225 159l-228 -159l-22 28zM53 0v43q74 8 102.5 30.5t28.5 78.5v577q0 74 -25.5 100.5t-107.5 18.5v39l225 51q72 16 72 -59v-727q0 -55 29 -78t104 -31v-43h-428z" glyph-name="icircumflex" unicode="î"/><glyph d="M55 1163q-41 0 -71.5 32t-30.5 73t30.5 71.5t71.5 30.5t72 -30.5t31 -71.5t-31 -73t-72 -32zM432 1163q-41 0 -71.5 32t-30.5 73t30.5 71.5t71.5 30.5t72 -30.5t31 -71.5t-31 -73t-72 -32zM53 0v43q74 8 102.5 30.5t28.5 78.5v577q0 74 -25.5 100.5t-107.5 18.5v39 l225 51q72 16 72 -59v-727q0 -55 29 -78t104 -31v-43h-428z" glyph-name="idieresis" unicode="ï"/><glyph d="M467 -12q-172 0 -289 126t-117 332q0 229 131.5 362.5t315.5 133.5q51 0 103.5 -11t81 -22.5t53 -17.5t35 5t10.5 44v61q0 39 -9 97l-227 -64l-10 35l225 64q-53 135 -233 139v43q260 0 354 -150l180 52l10 -35l-172 -49q45 -94 45 -242v-741q0 -109 133 -70v-43 q-74 -47 -153 -47q-74 0 -110 36.5t-33 123.5q-131 -162 -324 -162zM559 100q90 0 161 50.5t71 160.5v291q0 137 -92.5 211t-209.5 74q-121 0 -190.5 -97.5t-69.5 -259.5q0 -186 91.5 -308t238.5 -122z" glyph-name="eth" horiz-adv-x="1134" unicode="ð"/><glyph d="M729 1126q-88 0 -216 64.5t-167 64.5q-35 0 -60.5 -24.5t-25.5 -69.5h-45q0 102 56.5 158.5t140.5 56.5q86 0 214 -64.5t169 -64.5q37 0 61.5 25.5t24.5 68.5h45q0 -102 -56.5 -158.5t-140.5 -56.5zM958 -12q-131 0 -131 145v422q0 129 -60 207t-171 78 q-115 0 -181.5 -79t-66.5 -206v-403q0 -55 29 -78t104 -31v-43h-428v43q74 8 102.5 30.5t28.5 78.5v577q0 74 -25.5 100.5t-107.5 18.5v39l225 51q72 16 72 -61q0 -92 31 -86q6 0 16 10q131 141 291 141q131 0 218 -84t87 -256v-465q0 -92 105 -69v-25q-42 -55 -138 -55z " glyph-name="ntilde" horiz-adv-x="1134" unicode="ñ"/><glyph d="M627 1090q-14 -20 -60 6l-239 145q-51 31 -62.5 71t13.5 60q55 59 127 -16l202 -215q31 -28 19 -51zM530 -12q-195 0 -332 130t-137 345t138.5 347t337.5 132q195 0 331 -130t136 -343q0 -215 -138.5 -348t-335.5 -133zM582 45q111 0 178 89t67 259q0 203 -97 347.5 t-247 144.5q-111 0 -177 -88t-66 -258q0 -205 96 -349.5t246 -144.5z" glyph-name="ograve" horiz-adv-x="1064" unicode="ò"/><glyph d="M475 1090q-12 23 17 51l202 215q72 78 129 16q25 -20 13.5 -60t-62.5 -71l-239 -145q-48 -24 -60 -6zM530 -12q-195 0 -332 130t-137 345t138.5 347t337.5 132q195 0 331 -130t136 -343q0 -215 -138.5 -348t-335.5 -133zM582 45q111 0 178 89t67 259q0 203 -97 347.5 t-247 144.5q-111 0 -177 -88t-66 -258q0 -205 96 -349.5t246 -144.5z" glyph-name="oacute" horiz-adv-x="1064" unicode="ó"/><glyph d="M535 1409l247 -283l-22 -28l-225 159l-228 -159l-22 28zM530 -12q-195 0 -332 130t-137 345t138.5 347t337.5 132q195 0 331 -130t136 -343q0 -215 -138.5 -348t-335.5 -133zM582 45q111 0 178 89t67 259q0 203 -97 347.5t-247 144.5q-111 0 -177 -88t-66 -258 q0 -205 96 -349.5t246 -144.5z" glyph-name="ocircumflex" horiz-adv-x="1064" unicode="ô"/><glyph d="M692 1126q-88 0 -216 64.5t-167 64.5q-35 0 -60.5 -24.5t-25.5 -69.5h-45q0 102 56.5 158.5t140.5 56.5q86 0 214 -64.5t169 -64.5q37 0 61.5 25.5t24.5 68.5h45q0 -102 -56.5 -158.5t-140.5 -56.5zM530 -12q-195 0 -332 130t-137 345t138.5 347t337.5 132 q195 0 331 -130t136 -343q0 -215 -138.5 -348t-335.5 -133zM582 45q111 0 178 89t67 259q0 203 -97 347.5t-247 144.5q-111 0 -177 -88t-66 -258q0 -205 96 -349.5t246 -144.5z" glyph-name="otilde" horiz-adv-x="1064" unicode="õ"/><glyph d="M344 1163q-41 0 -71.5 32t-30.5 73t30.5 71.5t71.5 30.5t71.5 -30.5t30.5 -71.5t-30.5 -73t-71.5 -32zM721 1163q-41 0 -72 32t-31 73t31 71.5t72 30.5t71.5 -30.5t30.5 -71.5t-30.5 -73t-71.5 -32zM530 -12q-195 0 -332 130t-137 345t138.5 347t337.5 132 q195 0 331 -130t136 -343q0 -215 -138.5 -348t-335.5 -133zM582 45q111 0 178 89t67 259q0 203 -97 347.5t-247 144.5q-111 0 -177 -88t-66 -258q0 -205 96 -349.5t246 -144.5z" glyph-name="odieresis" horiz-adv-x="1064" unicode="ö"/><glyph d="M481 741q-35 0 -60.5 27t-25.5 61.5t25.5 60t60.5 25.5t60.5 -25.5t25.5 -60t-25.5 -61.5t-60.5 -27zM102 487v56h758v-56h-758zM481 115q-35 0 -60.5 26.5t-25.5 61.5t25.5 60.5t60.5 25.5t60.5 -25.5t25.5 -60.5t-25.5 -61.5t-60.5 -26.5z" glyph-name="divide" horiz-adv-x="962" unicode="÷"/><glyph d="M858 819q145 -131 146 -350q0 -215 -138.5 -348t-335.5 -133q-160 0 -284 92l-60 -72l-28 23l59 71q-156 135 -156 361q0 215 138.5 347t337.5 132q168 0 294 -98l66 80l29 -23zM240 539q0 -182 75 -318l422 510q-100 154 -254 154q-111 0 -177 -88t-66 -258zM582 45 q111 0 178 89t67 259q0 174 -69 303l-422 -508q96 -143 246 -143z" glyph-name="oslash" horiz-adv-x="1064" unicode="ø"/><glyph d="M707 1090q-14 -20 -60 6l-241 145q-51 31 -62.5 71t12.5 60q57 61 129 -16l203 -215q29 -28 19 -51zM483 -12q-127 0 -213 83t-86 248v410q0 74 -25.5 98.5t-107.5 20.5v39l225 51q72 16 72 -59v-514q0 -125 61.5 -202t172 -77t178 78t67.5 201v364q0 74 -25.5 98.5 t-107.5 20.5v39l226 51q72 16 71 -59v-742q0 -88 105 -69v-25q-41 -55 -138 -55q-119 0 -135 123q-4 25 -18 24.5t-27 -12.5l-16 -17q-14 -14 -24.5 -22t-31 -24.5t-42 -26.5t-50 -21.5t-61.5 -17.5t-70 -6z" glyph-name="ugrave" horiz-adv-x="1144" unicode="ù"/><glyph d="M475 1090q-12 23 17 51l202 215q72 78 129 16q25 -20 13.5 -60t-62.5 -71l-239 -145q-48 -24 -60 -6zM483 -12q-127 0 -213 83t-86 248v410q0 74 -25.5 98.5t-107.5 20.5v39l225 51q72 16 72 -59v-514q0 -125 61.5 -202t172 -77t178 78t67.5 201v364q0 74 -25.5 98.5 t-107.5 20.5v39l226 51q72 16 71 -59v-742q0 -88 105 -69v-25q-41 -55 -138 -55q-119 0 -135 123q-4 25 -18 24.5t-27 -12.5l-16 -17q-14 -14 -24.5 -22t-31 -24.5t-42 -26.5t-50 -21.5t-61.5 -17.5t-70 -6z" glyph-name="uacute" horiz-adv-x="1144" unicode="ú"/><glyph d="M528 1409l248 -283l-22 -28l-226 159l-227 -159l-22 28zM483 -12q-127 0 -213 83t-86 248v410q0 74 -25.5 98.5t-107.5 20.5v39l225 51q72 16 72 -59v-514q0 -125 61.5 -202t172 -77t178 78t67.5 201v364q0 74 -25.5 98.5t-107.5 20.5v39l226 51q72 16 71 -59v-742 q0 -88 105 -69v-25q-41 -55 -138 -55q-119 0 -135 123q-4 25 -18 24.5t-27 -12.5l-16 -17q-14 -14 -24.5 -22t-31 -24.5t-42 -26.5t-50 -21.5t-61.5 -17.5t-70 -6z" glyph-name="ucircumflex" horiz-adv-x="1144" unicode="û"/><glyph d="M322 1163q-39 0 -70 32t-31 73t30 71.5t70.5 30.5t71.5 -30.5t31 -71.5t-30.5 -73t-71.5 -32zM698 1163q-41 0 -71.5 32t-30.5 73t30.5 71.5t71.5 30.5t72 -30.5t31 -71.5t-31 -73t-72 -32zM483 -12q-127 0 -213 83t-86 248v410q0 74 -25.5 98.5t-107.5 20.5v39l225 51 q72 16 72 -59v-514q0 -125 61.5 -202t172 -77t178 78t67.5 201v364q0 74 -25.5 98.5t-107.5 20.5v39l226 51q72 16 71 -59v-742q0 -88 105 -69v-25q-41 -55 -138 -55q-119 0 -135 123q-4 25 -18 24.5t-27 -12.5l-16 -17q-14 -14 -24.5 -22t-31 -24.5t-42 -26.5t-50 -21.5 t-61.5 -17.5t-70 -6z" glyph-name="udieresis" horiz-adv-x="1144" unicode="ü"/><glyph d="M481 1090q-12 23 17 51l202 215q72 78 129 16q25 -20 13.5 -60t-62.5 -71l-239 -145q-48 -24 -60 -6zM244 -406q-76 0 -120 35t-44 90q0 45 29.5 73t74.5 28q39 0 57.5 -23.5t20.5 -52.5t13.5 -52.5t39.5 -23.5q63 0 123 152q47 121 -8 268l-246 604q-39 98 -68.5 131 t-95.5 58v43h408v-43q-84 -25 -95 -56.5t29 -132.5l183 -448q14 -31 24.5 -40t21.5 1t25 41l91 233q51 129 73.5 204t13 115t-31 54t-74.5 29v43h363v-43q-88 -25 -126 -59t-75 -130l-344 -850q-53 -129 -105.5 -188.5t-156.5 -59.5z" glyph-name="yacute" horiz-adv-x="1071" unicode="ý"/><glyph d="M23 -389v43q74 8 102.5 30.5t28.5 77.5v1373q0 72 -26 98.5t-108 17.5v41l226 49q72 16 71 -57v-446q0 -16 11.5 -20.5t27.5 11.5q33 41 113 77t174 36q172 0 288 -127t116 -334q0 -229 -130.5 -361t-310.5 -132q-55 0 -109.5 13t-84 27.5t-53 22.5t-33 -1t-9.5 -44v-244 q0 -55 29 -77.5t105 -30.5v-43h-428zM614 41q125 0 198 98.5t73 257.5q0 184 -92.5 308t-233.5 124q-96 0 -169 -57t-73 -194v-211q0 -158 92 -242t205 -84z" glyph-name="thorn" horiz-adv-x="1107" unicode="þ"/><glyph d="M352 1163q-41 0 -71.5 32t-30.5 73t30.5 71.5t71.5 30.5t72 -30.5t31 -71.5t-31 -73t-72 -32zM729 1163q-41 0 -71.5 32t-30.5 73t30.5 71.5t71.5 30.5t71.5 -30.5t30.5 -71.5t-30.5 -73t-71.5 -32zM244 -406q-76 0 -120 35t-44 90q0 45 29.5 73t74.5 28q39 0 57.5 -23.5 t20.5 -52.5t13.5 -52.5t39.5 -23.5q63 0 123 152q47 121 -8 268l-246 604q-39 98 -68.5 131t-95.5 58v43h408v-43q-84 -25 -95 -56.5t29 -132.5l183 -448q14 -31 24.5 -40t21.5 1t25 41l91 233q51 129 73.5 204t13 115t-31 54t-74.5 29v43h363v-43q-88 -25 -126 -59 t-75 -130l-344 -850q-53 -129 -105.5 -188.5t-156.5 -59.5z" glyph-name="ydieresis" horiz-adv-x="1071" unicode="ÿ"/><glyph d="M434 1550q-33 0 -33 29v18q0 29 33 29h596q33 0 33 -29v-18q0 -29 -33 -29h-596zM41 0v43q72 14 110.5 46t71.5 104l395 923q41 94 41 156l117 12l451 -1040q49 -115 82.5 -153t109.5 -48v-43h-461v43q90 14 106.5 46t-13.5 91l-60 133q-35 74 -119 74h-397 q-90 0 -117 -61l-59 -136q-51 -125 131 -147v-43h-389zM463 451h418q20 0 31.5 14t0.5 37l-221 514q-20 49 -41 -2l-217 -508q-10 -27 -2 -41t31 -14z" glyph-name="Amacron" horiz-adv-x="1460" unicode="Ā"/><glyph d="M225 1202q-33 0 -32 29v18q0 29 32 29h596q33 0 33 -29v-18q0 -29 -33 -29h-596zM328 -12q-113 0 -190 56t-77 169q0 129 129 212t453 120q49 4 49 55v49q0 113 -55 176.5t-168 63.5q-172 0 -172 -150q0 -106 -90 -106q-41 0 -62.5 25.5t-21.5 68.5q0 109 117.5 162 t281.5 53q180 0 257 -81t77 -255v-469q0 -88 105 -69v-25q-41 -55 -138 -55q-127 0 -133 149q2 14 -8 14.5t-20 -14.5q-57 -70 -147.5 -109.5t-186.5 -39.5zM424 82q111 0 189.5 70.5t78.5 175.5v94q0 39 -16.5 57.5t-65.5 12.5q-373 -45 -372 -242q0 -72 47 -120t139 -48z " glyph-name="amacron" horiz-adv-x="999" unicode="ā"/><glyph d="M709 1497q-125 0 -197 69.5t-72 174.5q0 23 17 22h22q16 0 21 -16q10 -53 66.5 -93t142.5 -40t142 40t69 93q4 16 20 16h23q16 0 16 -22q0 -104 -72.5 -174t-197.5 -70zM41 0v43q72 14 110.5 46t71.5 104l395 923q41 94 41 156l117 12l451 -1040q49 -115 82.5 -153 t109.5 -48v-43h-461v43q90 14 106.5 46t-13.5 91l-60 133q-35 74 -119 74h-397q-90 0 -117 -61l-59 -136q-51 -125 131 -147v-43h-389zM463 451h418q20 0 31.5 14t0.5 37l-221 514q-20 49 -41 -2l-217 -508q-10 -27 -2 -41t31 -14z" glyph-name="Abreve" horiz-adv-x="1460" unicode="Ă"/><glyph d="M500 1149q-125 0 -197 69.5t-72 174.5q0 23 17 22h22q16 0 21 -16q10 -53 66.5 -93t142.5 -40t142 40t69 93q4 16 20 16h23q16 0 16 -22q0 -104 -72.5 -174t-197.5 -70zM328 -12q-113 0 -190 56t-77 169q0 129 129 212t453 120q49 4 49 55v49q0 113 -55 176.5t-168 63.5 q-172 0 -172 -150q0 -106 -90 -106q-41 0 -62.5 25.5t-21.5 68.5q0 109 117.5 162t281.5 53q180 0 257 -81t77 -255v-469q0 -88 105 -69v-25q-41 -55 -138 -55q-127 0 -133 149q2 14 -8 14.5t-20 -14.5q-57 -70 -147.5 -109.5t-186.5 -39.5zM424 82q111 0 189.5 70.5 t78.5 175.5v94q0 39 -16.5 57.5t-65.5 12.5q-373 -45 -372 -242q0 -72 47 -120t139 -48z" glyph-name="abreve" horiz-adv-x="999" unicode="ă"/><glyph d="M1225 0q-152 -102 -152 -229q0 -49 34 -79t77 -30q115 0 164 111h51q-74 -195 -260 -195q-84 0 -150.5 45t-66.5 127q0 86 66.5 150.5t156.5 99.5h-187v43q90 14 106.5 46t-13.5 91l-60 133q-35 74 -119 74h-397q-90 0 -117 -61l-59 -136q-51 -125 131 -147v-43h-389v43 q72 14 110.5 46t71.5 104l395 923q41 94 41 156l117 12l451 -1040q49 -115 82.5 -153t109.5 -48v-43h-194zM881 451q20 0 31.5 14t0.5 37l-221 514q-20 49 -41 -2l-217 -508q-10 -27 -2 -41t31 -14h418z" glyph-name="Aogonek" horiz-adv-x="1460" unicode="Ą"/><glyph d="M883 -4q-211 -61 -211 -205q0 -51 29.5 -79.5t74.5 -28.5q86 0 135 116h45q-20 -72 -80.5 -136t-164.5 -64q-78 0 -134.5 39.5t-56.5 119.5q0 86 64.5 148.5t171.5 97.5q-63 37 -66 133q2 14 -8 14.5t-20 -14.5q-57 -70 -147.5 -109.5t-186.5 -39.5q-113 0 -190 56 t-77 169q0 129 129 212t453 120q49 4 49 55v49q0 113 -55 176.5t-168 63.5q-172 0 -172 -150q0 -106 -90 -106q-41 0 -62.5 25.5t-21.5 68.5q0 109 117.5 162t281.5 53q180 0 257 -81t77 -255v-469q0 -88 105 -69v-25q-25 -31 -78 -47zM692 328v94q0 39 -16.5 57.5 t-65.5 12.5q-373 -45 -372 -242q0 -72 47 -120t139 -48q111 0 189.5 71t78.5 175z" glyph-name="aogonek" horiz-adv-x="999" unicode="ą"/><glyph d="M633 1438q-12 23 16 51l203 215q72 78 129 16q25 -20 13.5 -60t-62.5 -71l-240 -145q-47 -24 -59 -6zM723 -20q-270 0 -466 180t-196 481q0 303 200 483.5t478 180.5q215 0 349.5 -102.5t134.5 -223.5q0 -55 -32 -91t-85 -36q-47 0 -78 33t-35 94q-8 102 -88 181t-233 79 q-190 0 -307 -134t-117 -366q0 -281 171 -457t421 -176q209 0 368 179l29 -25q-55 -100 -187 -190t-327 -90z" glyph-name="Cacute" horiz-adv-x="1308" unicode="Ć"/><glyph d="M496 1090q-12 23 16 51l203 215q72 78 129 16q25 -20 13.5 -60t-62.5 -71l-240 -145q-47 -24 -59 -6zM545 -12q-203 0 -343.5 129t-140.5 346q0 221 145.5 350t352.5 129q158 0 255 -74.5t97 -165.5q0 -43 -25.5 -70.5t-66.5 -27.5q-82 0 -90 90q-8 80 -59.5 136.5 t-155.5 56.5q-131 0 -208 -94.5t-77 -260.5q0 -199 118 -315.5t294 -116.5q166 0 250 131l35 -28q-33 -80 -133.5 -147.5t-247.5 -67.5z" glyph-name="cacute" horiz-adv-x="997" unicode="ć"/><glyph d="M690 1511q-41 0 -71.5 32t-30.5 73t30.5 71.5t71.5 30.5t72 -30.5t31 -71.5t-31 -73t-72 -32zM723 -20q-270 0 -466 180t-196 481q0 303 200 483.5t478 180.5q215 0 349.5 -102.5t134.5 -223.5q0 -55 -32 -91t-85 -36q-47 0 -78 33t-35 94q-8 102 -88 181t-233 79 q-190 0 -307 -134t-117 -366q0 -281 171 -457t421 -176q209 0 368 179l29 -25q-55 -100 -187 -190t-327 -90z" glyph-name="Cdotaccent" horiz-adv-x="1308" unicode="Ċ"/><glyph d="M555 1163q-41 0 -71.5 32t-30.5 73t30.5 71.5t71.5 30.5t71.5 -30.5t30.5 -71.5t-30.5 -73t-71.5 -32zM545 -12q-203 0 -343.5 129t-140.5 346q0 221 145.5 350t352.5 129q158 0 255 -74.5t97 -165.5q0 -43 -25.5 -70.5t-66.5 -27.5q-82 0 -90 90q-8 80 -59.5 136.5 t-155.5 56.5q-131 0 -208 -94.5t-77 -260.5q0 -199 118 -315.5t294 -116.5q166 0 250 131l35 -28q-33 -80 -133.5 -147.5t-247.5 -67.5z" glyph-name="cdotaccent" horiz-adv-x="997" unicode="ċ"/><glyph d="M692 1442l-250 282l23 27l227 -160l226 160l22 -27zM723 -20q-270 0 -466 180t-196 481q0 303 200 483.5t478 180.5q215 0 349.5 -102.5t134.5 -223.5q0 -55 -32 -91t-85 -36q-47 0 -78 33t-35 94q-8 102 -88 181t-233 79q-190 0 -307 -134t-117 -366q0 -281 171 -457 t421 -176q209 0 368 179l29 -25q-55 -100 -187 -190t-327 -90z" glyph-name="Ccaron" horiz-adv-x="1308" unicode="Č"/><glyph d="M555 1094l-250 282l23 27l227 -160l225 160l23 -27zM545 -12q-203 0 -343.5 129t-140.5 346q0 221 145.5 350t352.5 129q158 0 255 -74.5t97 -165.5q0 -43 -25.5 -70.5t-66.5 -27.5q-82 0 -90 90q-8 80 -59.5 136.5t-155.5 56.5q-131 0 -208 -94.5t-77 -260.5 q0 -199 118 -315.5t294 -116.5q166 0 250 131l35 -28q-33 -80 -133.5 -147.5t-247.5 -67.5z" glyph-name="ccaron" horiz-adv-x="997" unicode="č"/><glyph d="M647 1442l-250 282l23 27l227 -160l225 160l23 -27zM61 0v43q68 12 95.5 31.5t27.5 72.5v979q0 51 -27.5 71t-95.5 32v43h480q139 0 256.5 -32t218 -100.5t158 -194.5t57.5 -298q0 -164 -53.5 -290t-146.5 -201.5t-211 -113.5t-255 -38q-39 0 -144.5 5t-148.5 5 q-90 0 -211 -14zM551 57q172 0 284.5 84t156.5 211t44 295q0 123 -25.5 222.5t-82 179t-154.5 124t-231 44.5h-45q-66 0 -96.5 -18.5t-30.5 -70.5v-981q0 -90 180 -90z" glyph-name="Dcaron" horiz-adv-x="1312" unicode="Ď"/><glyph d="M1069 991q-14 0 -25.5 11.5t-11.5 25.5l8 244q4 80 68 80q41 0 62.5 -27t5.5 -78l-68 -219q-14 -37 -39 -37zM457 -12q-168 0 -282 131t-114 340q0 223 132.5 353t318.5 130q51 0 102.5 -11t80 -22.5t53 -17.5t34 5t9.5 44v195q0 72 -26 98.5t-108 17.5v41l226 49 q72 16 71 -57v-1147q0 -88 105 -69v-25q-39 -55 -135 -55q-100 0 -129 94q-8 31 -37 31q-18 0 -47 -19.5t-57.5 -43t-82 -43t-114.5 -19.5zM559 100q92 0 162 54.5t70 179.5v235q0 158 -91.5 239t-207.5 81q-125 0 -196 -97.5t-71 -259.5q0 -188 92 -310t242 -122z" glyph-name="dcaron" horiz-adv-x="1165" unicode="ď"/><glyph d="M541 1272q139 0 256.5 -32t218 -100.5t158 -194.5t57.5 -298q0 -164 -53.5 -290t-146.5 -201.5t-211 -113.5t-255 -38q-39 0 -144.5 5t-148.5 5q-90 0 -211 -14v43q68 12 95.5 31.5t27.5 72.5v465h-121v47h121v467q0 51 -27.5 71t-95.5 32v43h480zM551 57q172 0 284.5 84 t156.5 211t44 295q0 123 -25.5 222.5t-82 179t-154.5 124t-231 44.5h-45q-66 0 -96.5 -18.5t-30.5 -70.5v-469h252v-47h-252v-465q0 -90 180 -90z" glyph-name="Dcroat" horiz-adv-x="1312" unicode="Đ"/><glyph d="M1087 1042h-133v-905q0 -88 105 -69v-25q-39 -55 -135 -55q-100 0 -129 94q-8 31 -37 31q-18 0 -47 -19.5t-57.5 -43t-82 -43t-114.5 -19.5q-168 0 -282 131t-114 340q0 223 132.5 353t318.5 130q51 0 102.5 -11t80 -22.5t53 -17.5t34 5t9.5 44v102h-263v48h263v45 q0 72 -26 98.5t-108 17.5v41l226 49q72 16 71 -57v-194h133v-48zM791 334v235q0 158 -91.5 239t-207.5 81q-125 0 -196 -97.5t-71 -259.5q0 -188 92.5 -310t241.5 -122q92 0 162 54.5t70 179.5z" glyph-name="dcroat" horiz-adv-x="1134" unicode="đ"/><glyph d="M305 1550q-33 0 -33 29v18q0 29 33 29h596q33 0 33 -29v-18q0 -29 -33 -29h-596zM61 0v43q68 12 95.5 31.5t27.5 72.5v977q0 53 -27.5 73t-95.5 32v43h930q29 0 31 -25q12 -106 41 -223h-39q-39 96 -100.5 143t-163.5 47h-262q-66 0 -96.5 -20t-30.5 -76v-350 q0 -55 29.5 -73.5t97.5 -18.5h202q88 0 121 33.5t47 113.5h33v-354h-33q-14 78 -47 113.5t-121 35.5h-202q-66 0 -96.5 -19t-30.5 -73v-370q0 -57 40 -78t152 -19l236 2q102 2 148 30t77 81l49 76h41q-45 -82 -61 -219q-4 -29 -33 -29h-959z" glyph-name="Emacron" horiz-adv-x="1150" unicode="Ē"/><glyph d="M219 1202q-33 0 -33 29v18q0 29 33 29h596q33 0 33 -29v-18q0 -29 -33 -29h-596zM532 -12q-199 0 -335 131t-136 348q0 219 136.5 347t339.5 128q154 0 244.5 -74.5t90.5 -191.5q0 -100 -86 -143.5t-305 -53.5l-182 -8q-63 -2 -51 -86q20 -131 124.5 -209t245.5 -78 q166 0 256 117l33 -27q-39 -74 -135.5 -137t-239.5 -63zM303 522l150 2q145 4 198.5 36t53.5 114q0 92 -51.5 152.5t-153.5 60.5q-115 0 -181.5 -73t-80.5 -200q-6 -59 9 -76.5t56 -15.5z" glyph-name="emacron" horiz-adv-x="978" unicode="ē"/><glyph d="M582 1511q-41 0 -72 32t-31 73t31 71.5t72 30.5t71.5 -30.5t30.5 -71.5t-30.5 -73t-71.5 -32zM61 0v43q68 12 95.5 31.5t27.5 72.5v977q0 53 -27.5 73t-95.5 32v43h930q29 0 31 -25q12 -106 41 -223h-39q-39 96 -100.5 143t-163.5 47h-262q-66 0 -96.5 -20t-30.5 -76 v-350q0 -55 29.5 -73.5t97.5 -18.5h202q88 0 121 33.5t47 113.5h33v-354h-33q-14 78 -47 113.5t-121 35.5h-202q-66 0 -96.5 -19t-30.5 -73v-370q0 -57 40 -78t152 -19l236 2q102 2 148 30t77 81l49 76h41q-45 -82 -61 -219q-4 -29 -33 -29h-959z" glyph-name="Edotaccent" horiz-adv-x="1150" unicode="Ė"/><glyph d="M494 1163q-41 0 -72 32t-31 73t31 71.5t72 30.5t71.5 -30.5t30.5 -71.5t-30.5 -73t-71.5 -32zM532 -12q-199 0 -335 131t-136 348q0 219 136.5 347t339.5 128q154 0 244.5 -74.5t90.5 -191.5q0 -100 -86 -143.5t-305 -53.5l-182 -8q-63 -2 -51 -86q20 -131 124.5 -209 t245.5 -78q166 0 256 117l33 -27q-39 -74 -135.5 -137t-239.5 -63zM303 522l150 2q145 4 198.5 36t53.5 114q0 92 -51.5 152.5t-153.5 60.5q-115 0 -181.5 -73t-80.5 -200q-6 -59 9 -76.5t56 -15.5z" glyph-name="edotaccent" horiz-adv-x="978" unicode="ė"/><glyph d="M1073 248h41q-45 -82 -61 -219q-4 -29 -33 -29h-172q-152 -102 -152 -229q0 -49 34 -79t77 -30q115 0 164 111h51q-74 -195 -260 -195q-84 0 -150.5 45t-66.5 127q0 86 66.5 150.5t156.5 99.5h-707v43q68 12 95.5 31.5t27.5 72.5v977q0 53 -27.5 73t-95.5 32v43h930 q29 0 31 -25q12 -106 41 -223h-39q-39 96 -100.5 143t-163.5 47h-262q-66 0 -96.5 -20t-30.5 -76v-350q0 -55 29.5 -73.5t97.5 -18.5h202q88 0 121 33.5t47 113.5h33v-354h-33q-14 78 -47 113.5t-121 35.5h-202q-66 0 -96.5 -19t-30.5 -73v-370q0 -57 40 -78t152 -19l236 2 q102 2 148 30t77 81z" glyph-name="Eogonek" horiz-adv-x="1150" unicode="Ę"/><glyph d="M684 12q-190 -102 -190 -219q0 -55 28.5 -82.5t73.5 -27.5q96 0 145 116h54q-27 -74 -91.5 -137t-171.5 -63q-76 0 -133 41t-57 127q0 127 178 221q-195 4 -327 135t-132 344q0 219 136.5 347t339.5 128q154 0 244.5 -74.5t90.5 -191.5q0 -100 -86 -143.5t-305 -53.5 l-182 -8q-63 -2 -51 -86q20 -131 124.5 -209t245.5 -78q166 0 256 117l33 -27q-67 -127 -223 -176zM238 614q-6 -59 9 -76.5t56 -15.5l150 2q145 4 198.5 36t53.5 114q0 92 -51.5 152.5t-153.5 60.5q-115 0 -181.5 -73t-80.5 -200z" glyph-name="eogonek" horiz-adv-x="978" unicode="ę"/><glyph d="M582 1442l-250 282l22 27l228 -160l225 160l22 -27zM61 0v43q68 12 95.5 31.5t27.5 72.5v977q0 53 -27.5 73t-95.5 32v43h930q29 0 31 -25q12 -106 41 -223h-39q-39 96 -100.5 143t-163.5 47h-262q-66 0 -96.5 -20t-30.5 -76v-350q0 -55 29.5 -73.5t97.5 -18.5h202 q88 0 121 33.5t47 113.5h33v-354h-33q-14 78 -47 113.5t-121 35.5h-202q-66 0 -96.5 -19t-30.5 -73v-370q0 -57 40 -78t152 -19l236 2q102 2 148 30t77 81l49 76h41q-45 -82 -61 -219q-4 -29 -33 -29h-959z" glyph-name="Ecaron" horiz-adv-x="1150" unicode="Ě"/><glyph d="M496 1094l-250 282l22 27l228 -160l225 160l22 -27zM532 -12q-199 0 -335 131t-136 348q0 219 136.5 347t339.5 128q154 0 244.5 -74.5t90.5 -191.5q0 -100 -86 -143.5t-305 -53.5l-182 -8q-63 -2 -51 -86q20 -131 124.5 -209t245.5 -78q166 0 256 117l33 -27 q-39 -74 -135.5 -137t-239.5 -63zM303 522l150 2q145 4 198.5 36t53.5 114q0 92 -51.5 152.5t-153.5 60.5q-115 0 -181.5 -73t-80.5 -200q-6 -59 9 -76.5t56 -15.5z" glyph-name="ecaron" horiz-adv-x="978" unicode="ě"/><glyph d="M688 1497q-125 0 -196.5 69.5t-71.5 174.5q0 23 16 22h23q16 0 20 -16q10 -53 66.5 -93t142.5 -40t142.5 40t68.5 93q4 16 21 16h22q16 0 16 -22q0 -104 -72.5 -174t-197.5 -70zM707 -20q-264 0 -455 178t-191 479q0 305 199 486.5t479 181.5q213 0 347.5 -102.5 t134.5 -219.5q0 -51 -32 -85t-85 -34q-45 0 -74 29t-33 76q-8 104 -90 187t-235 83q-190 0 -307 -134t-117 -366q0 -293 177 -488.5t421 -195.5q178 0 178 142v143q0 115 -34 153.5t-148 47.5v41l481 2v-43q-82 -10 -105.5 -48t-23.5 -153v-150q0 -127 10 -190 q-47 39 -102 43t-104.5 -11.5t-131 -33.5t-159.5 -18z" glyph-name="Gbreve" horiz-adv-x="1374" unicode="Ğ"/><glyph d="M516 1149q-125 0 -196.5 69.5t-71.5 174.5q0 23 16 22h23q16 0 20 -16q10 -53 66.5 -93t142.5 -40t142.5 40t68.5 93q4 16 21 16h22q16 0 16 -22q0 -104 -72.5 -174t-197.5 -70zM414 -389q-166 0 -274.5 63.5t-108.5 175.5q0 135 178 201q31 12 33 15q0 4 -17 6 q-66 10 -108.5 52t-42.5 95t44 91t128 50q-154 88 -154 265q0 141 100.5 229t276.5 88q106 0 194.5 -37t135.5 -106q-2 61 26.5 101t92.5 40q45 0 70.5 -20.5t25.5 -55.5q0 -41 -32 -59.5t-69 -5.5q-43 14 -67.5 -6.5t-9.5 -65.5q12 -39 12 -98q0 -141 -99.5 -227.5 t-269.5 -86.5q-41 0 -98 6.5t-78 6.5q-82 0 -82 -60q0 -51 94 -65l328 -58q158 -27 233.5 -72.5t75.5 -138.5q0 -139 -164.5 -231t-373.5 -92zM504 360q88 0 128 66t40 164q0 133 -64.5 219t-171.5 86q-90 0 -130 -64.5t-40 -162.5q0 -133 66 -220.5t172 -87.5zM485 -342 q129 0 216 59.5t87 153.5q0 57 -38.5 86t-128.5 47l-138 23q-147 27 -217.5 -18.5t-70.5 -135.5q0 -100 81.5 -157.5t208.5 -57.5z" glyph-name="gbreve" horiz-adv-x="1044" unicode="ğ"/><glyph d="M690 1511q-41 0 -71.5 32t-30.5 73t30.5 71.5t71.5 30.5t72 -30.5t31 -71.5t-31 -73t-72 -32zM707 -20q-264 0 -455 178t-191 479q0 305 199 486.5t479 181.5q213 0 347.5 -102.5t134.5 -219.5q0 -51 -32 -85t-85 -34q-45 0 -74 29t-33 76q-8 104 -90 187t-235 83 q-190 0 -307 -134t-117 -366q0 -293 177 -488.5t421 -195.5q178 0 178 142v143q0 115 -34 153.5t-148 47.5v41l481 2v-43q-82 -10 -105.5 -48t-23.5 -153v-150q0 -127 10 -190q-47 39 -102 43t-104.5 -11.5t-131 -33.5t-159.5 -18z" glyph-name="Gdotaccent" horiz-adv-x="1374" unicode="Ġ"/><glyph d="M518 1163q-41 0 -71.5 32t-30.5 73t30.5 71.5t71.5 30.5t72 -30.5t31 -71.5t-31 -73t-72 -32zM414 -389q-166 0 -274.5 63.5t-108.5 175.5q0 135 178 201q31 12 33 15q0 4 -17 6q-66 10 -108.5 52t-42.5 95t44 91t128 50q-154 88 -154 265q0 141 100.5 229t276.5 88 q106 0 194.5 -37t135.5 -106q-2 61 26.5 101t92.5 40q45 0 70.5 -20.5t25.5 -55.5q0 -41 -32 -59.5t-69 -5.5q-43 14 -67.5 -6.5t-9.5 -65.5q12 -39 12 -98q0 -141 -99.5 -227.5t-269.5 -86.5q-41 0 -98 6.5t-78 6.5q-82 0 -82 -60q0 -51 94 -65l328 -58 q158 -27 233.5 -72.5t75.5 -138.5q0 -139 -164.5 -231t-373.5 -92zM504 360q88 0 128 66t40 164q0 133 -64.5 219t-171.5 86q-90 0 -130 -64.5t-40 -162.5q0 -133 66 -220.5t172 -87.5zM485 -342q129 0 216 59.5t87 153.5q0 57 -38.5 86t-128.5 47l-138 23 q-147 27 -217.5 -18.5t-70.5 -135.5q0 -100 81.5 -157.5t208.5 -57.5z" glyph-name="gdotaccent" horiz-adv-x="1044" unicode="ġ"/><glyph d="M707 -20q-264 0 -455 178t-191 479q0 305 199 486.5t479 181.5q213 0 347.5 -102.5t134.5 -219.5q0 -51 -32 -85t-85 -34q-45 0 -74 29t-33 76q-8 104 -90 187t-235 83q-190 0 -307 -134t-117 -366q0 -293 177 -488.5t421 -195.5q178 0 178 142v143q0 115 -34 153.5 t-148 47.5v41l481 2v-43q-82 -10 -105.5 -48t-23.5 -153v-150q0 -127 10 -190q-47 39 -102 43t-104.5 -11.5t-131 -33.5t-159.5 -18zM668 -590l-27 29q31 27 52.5 64.5t21.5 62.5q0 35 -33 35q-45 0 -74.5 29.5t-29.5 76.5q0 49 33.5 79t80.5 30q59 0 90 -43t31 -107 q0 -72 -39.5 -142.5t-105.5 -113.5z" glyph-name="Gcommaaccent" horiz-adv-x="1374" unicode="Ģ"/><glyph d="M553 1520l27 -31q-31 -25 -52.5 -62.5t-21.5 -62.5q0 -37 33 -37q45 0 74.5 -29.5t29.5 -76.5q0 -49 -34 -79t-81 -30q-59 0 -90.5 43t-31.5 107q0 74 39.5 143.5t107.5 114.5zM414 -389q-166 0 -274.5 63.5t-108.5 175.5q0 135 178 201q31 12 33 15q0 4 -17 6 q-66 10 -108.5 52t-42.5 95t44 91t128 50q-154 88 -154 265q0 141 100.5 229t276.5 88q106 0 194.5 -37t135.5 -106q-2 61 26.5 101t92.5 40q45 0 70.5 -20.5t25.5 -55.5q0 -41 -32 -59.5t-69 -5.5q-43 14 -67.5 -6.5t-9.5 -65.5q12 -39 12 -98q0 -141 -99.5 -227.5 t-269.5 -86.5q-41 0 -98 6.5t-78 6.5q-82 0 -82 -60q0 -51 94 -65l328 -58q158 -27 233.5 -72.5t75.5 -138.5q0 -139 -164.5 -231t-373.5 -92zM504 360q88 0 128 66t40 164q0 133 -64.5 219t-171.5 86q-90 0 -130 -64.5t-40 -162.5q0 -133 66 -220.5t172 -87.5zM485 -342 q129 0 216 59.5t87 153.5q0 57 -38.5 86t-128.5 47l-138 23q-147 27 -217.5 -18.5t-70.5 -135.5q0 -100 81.5 -157.5t208.5 -57.5z" glyph-name="gcommaaccent" horiz-adv-x="1044" unicode="ģ"/><glyph d="M1343 1229q-68 -12 -95 -31.5t-27 -73.5v-977q0 -53 27.5 -72.5t94.5 -31.5v-43h-432v43q68 12 95.5 31.5t27.5 72.5v388q0 70 -69 69h-523q-72 0 -71 -69v-388q0 -53 27.5 -72.5t97.5 -31.5v-43h-435v43q68 12 95.5 31.5t27.5 72.5v977q0 53 -27.5 73t-95.5 32v43h435 v-43q-70 -12 -97.5 -31.5t-27.5 -73.5v-137q0 -72 73 -72h527q45 0 63 27v182q0 53 -27.5 73t-95.5 32v43h432v-43zM963 659q72 0 71 72v94q-18 27 -61 27h-531q-72 0 -71 -70v-51q0 -72 73 -72h519z" glyph-name="Hbar" horiz-adv-x="1404" unicode="Ħ"/><glyph d="M971 137q0 -88 104 -69v-25q-41 -55 -137 -55q-131 0 -131 145v422q0 129 -60.5 207t-171 78t-179 -79t-68.5 -206v-403q0 -55 28.5 -78t104.5 -31v-43h-428v43q74 8 102.5 30.5t28.5 78.5v903h-133v55h133v25q0 72 -25.5 98.5t-107.5 17.5v41l225 49q72 16 72 -57v-174 h374v-55h-374v-178q0 -92 30 -86q6 0 17 10l18 18q20 20 32.5 31.5t41.5 31t55.5 31t66.5 20.5t83 9q127 0 213 -84t86 -256v-465z" glyph-name="hbar" horiz-adv-x="1114" unicode="ħ"/><glyph d="M0 1550q-33 0 -33 29v18q0 29 33 29h596q33 0 33 -29v-18q0 -29 -33 -29h-596zM61 0v43q68 12 95.5 31.5t27.5 72.5v977q0 53 -27.5 73t-95.5 32v43h435v-43q-70 -12 -97.5 -31.5t-27.5 -73.5v-977q0 -53 27.5 -72.5t97.5 -31.5v-43h-435z" glyph-name="Imacron" horiz-adv-x="557" unicode="Ī"/><glyph d="M-31 1202q-33 0 -32 29v18q0 29 32 29h596q33 0 33 -29v-18q0 -29 -33 -29h-596zM53 0v43q74 8 102.5 30.5t28.5 78.5v577q0 74 -25.5 100.5t-107.5 18.5v39l225 51q72 16 72 -59v-727q0 -55 29 -78t104 -31v-43h-428z" glyph-name="imacron" unicode="ī"/><glyph d="M496 1229q-70 -12 -97.5 -31.5t-27.5 -73.5v-977q0 -53 27.5 -72.5t97.5 -31.5v-43h-181q-152 -102 -151 -229q0 -49 33.5 -79t76.5 -30q115 0 164 111h51q-74 -195 -260 -195q-84 0 -150.5 45t-66.5 127q0 86 66.5 150.5t157.5 99.5h-175v43q68 12 95.5 31.5t27.5 72.5 v977q0 53 -27.5 73t-95.5 32v43h435v-43z" glyph-name="Iogonek" horiz-adv-x="557" unicode="Į"/><glyph d="M244 1163q-41 0 -72 32t-31 73t31 71.5t72 30.5t71.5 -30.5t30.5 -71.5t-30.5 -73t-71.5 -32zM285 0q-152 -102 -152 -229q0 -49 34 -79t77 -30q115 0 164 111h51q-74 -195 -260 -195q-84 0 -150.5 45t-66.5 127q0 86 66.5 150.5t156.5 99.5h-152v43q74 8 102.5 30.5 t28.5 78.5v577q0 74 -25.5 100.5t-107.5 18.5v39l225 51q72 16 72 -59v-727q0 -55 29 -78t104 -31v-43h-196z" glyph-name="iogonek" unicode="į"/><glyph d="M276.5 1511q-40.5 0 -71.5 32t-31 73t31 71.5t71.5 30.5t71.5 -30.5t31 -71.5t-31 -73t-71.5 -32zM61 0v43q68 12 95.5 31.5t27.5 72.5v977q0 53 -27.5 73t-95.5 32v43h435v-43q-70 -12 -97.5 -31.5t-27.5 -73.5v-977q0 -53 27.5 -72.5t97.5 -31.5v-43h-435z" glyph-name="Idotaccent" horiz-adv-x="557" unicode="İ"/><glyph d="M53 0v43q74 8 102.5 30.5t28.5 78.5v577q0 74 -25.5 100.5t-107.5 18.5v39l225 51q72 16 72 -59v-727q0 -55 29 -78t104 -31v-43h-428z" glyph-name="dotlessi" unicode="ı"/><glyph d="M61 0v43q68 12 95.5 31.5t27.5 72.5v977q0 53 -27.5 73t-95.5 32v43h435v-43q-70 -12 -97.5 -31.5t-27.5 -73.5v-977q0 -53 27.5 -72.5t97.5 -31.5v-43h-435zM844 -20q-131 0 -204 55t-73 135q0 47 25.5 76.5t71.5 29.5q88 0 88 -110q0 -51 27.5 -92t80.5 -41 q98 0 98 145v946q0 53 -30.5 73t-112.5 32v43h455v-43q-70 -12 -97.5 -31.5t-27.5 -73.5v-841q0 -303 -301 -303z" glyph-name="IJ" horiz-adv-x="1329" unicode="Ĳ"/><glyph d="M248 1163q-41 0 -72 32t-31 73t31 71.5t72 30.5t71.5 -30.5t30.5 -71.5t-30.5 -73t-71.5 -32zM766 1163q-41 0 -71.5 32t-30.5 73t30.5 71.5t71.5 30.5t71.5 -30.5t30.5 -71.5t-30.5 -73t-71.5 -32zM53 0v43q74 8 102.5 30.5t28.5 78.5v577q0 74 -25.5 100.5t-107.5 18.5 v39l225 51q72 16 72 -59v-727q0 -55 29 -78t104 -31v-43h-428zM606 -410q-78 0 -134 33t-56 94q0 82 80 82q29 0 51 -23.5t35.5 -53t32 -53t40.5 -23.5q49 0 50 106v977q0 74 -26 100.5t-108 18.5v39l226 51q72 16 71 -59v-1006q0 -133 -71.5 -208t-190.5 -75z" glyph-name="ij" horiz-adv-x="999" unicode="ĳ"/><glyph d="M1018 211q53 -68 103 -105.5t71.5 -45t71.5 -17.5v-43h-459v43q55 4 71.5 27.5t-24.5 83.5l-313 385q-49 61 -111 2q-55 -51 -57 -123v-271q0 -53 27.5 -72.5t97.5 -31.5v-43h-435v43q68 12 95.5 31.5t27.5 72.5v977q0 53 -27.5 73t-95.5 32v43h435v-43 q-70 -12 -97.5 -31.5t-27.5 -73.5v-563l528 541q41 41 35 68.5t-31.5 42t-60.5 16.5v43h385v-43q-127 -8 -258 -135l-307 -318q-53 -55 12 -133zM662 -184q59 0 89.5 -43t30.5 -107q0 -72 -40 -142.5t-105 -113.5l-27 29q31 27 52.5 64.5t21.5 62.5q0 35 -33 35 q-45 0 -74.5 29.5t-29.5 76.5q0 49 34 79t81 30z" glyph-name="Kcommaaccent" horiz-adv-x="1314" unicode="Ķ"/><glyph d="M33 0v43q74 8 102.5 30.5t28.5 78.5v983q0 72 -25.5 98.5t-107.5 17.5v41l225 49q72 16 72 -57v-745q0 -29 15 -38t34 7l321 291q18 18 18.5 34.5t-25 30t-75.5 17.5v43h338v-43q-23 -2 -42 -7.5t-30.5 -8.5t-27.5 -14t-22.5 -15.5t-27 -21.5t-26.5 -23l-225 -201 l326 -451q31 -41 56.5 -61.5t42.5 -24.5t64 -10v-43h-383v43q57 8 64.5 23.5t-23.5 58.5l-243 340q-18 23 -54 -6q-76 -68 -75 -125v-182q0 -55 28.5 -78t104.5 -31v-43h-428zM530 -590l-26 29q31 27 52.5 64.5t21.5 62.5q0 35 -33 35q-45 0 -75 29.5t-30 76.5q0 49 34 79 t81 30q59 0 90 -43t31 -107q0 -72 -40 -142.5t-106 -113.5z" glyph-name="kcommaaccent" horiz-adv-x="1042" unicode="ķ"/><glyph d="M225 1438q-12 23 17 51l202 215q72 78 129 16q25 -20 13.5 -60t-62.5 -71l-239 -145q-48 -24 -60 -6zM61 0v43q68 12 95.5 31.5t27.5 72.5v977q0 53 -27.5 73t-95.5 32v43h435v-43q-70 -12 -97.5 -31.5t-27.5 -73.5v-977q0 -100 116 -98l295 17q154 8 226 127l34 61h45 l-40 -129q-25 -72 -21 -125h-965z" glyph-name="Lacute" horiz-adv-x="1128" unicode="Ĺ"/><glyph d="M166 1438q-12 23 16 51l203 215q72 78 129 16q25 -20 13.5 -60t-62.5 -71l-240 -145q-47 -24 -59 -6zM285 -12q-131 0 -131 145v1002q0 72 -26 98.5t-108 17.5v41l226 49q72 16 71 -57v-1147q0 -88 105 -69v-25q-39 -55 -137 -55z" glyph-name="lacute" horiz-adv-x="471" unicode="ĺ"/><glyph d="M61 0v43q68 12 95.5 31.5t27.5 72.5v977q0 53 -27.5 73t-95.5 32v43h435v-43q-70 -12 -97.5 -31.5t-27.5 -73.5v-977q0 -100 116 -98l295 17q154 8 226 127l34 61h45l-40 -129q-25 -72 -21 -125h-965zM608 -590l-26 29q31 27 52 64.5t21 62.5q0 35 -32 35q-45 0 -75 29.5 t-30 76.5q0 49 34 79t81 30q59 0 90 -43t31 -107q0 -72 -40 -142.5t-106 -113.5z" glyph-name="Lcommaaccent" horiz-adv-x="1128" unicode="Ļ"/><glyph d="M285 -12q-131 0 -131 145v1002q0 72 -26 98.5t-108 17.5v41l226 49q72 16 71 -57v-1147q0 -88 105 -69v-25q-39 -55 -137 -55zM289 -590l-27 29q31 27 52.5 64.5t21.5 62.5q0 35 -33 35q-45 0 -74.5 29.5t-29.5 76.5q0 49 33.5 79t80.5 30q59 0 90 -43t31 -107 q0 -72 -39.5 -142.5t-105.5 -113.5z" glyph-name="lcommaaccent" horiz-adv-x="471" unicode="ļ"/><glyph d="M705 885l-27 30q31 25 52.5 63t21.5 62q0 35 -33 35q-45 0 -75 31t-30 76q0 51 34 80.5t81 29.5q59 0 91 -43t32 -106q0 -74 -40.5 -144.5t-106.5 -113.5zM61 0v43q68 12 95.5 31.5t27.5 72.5v977q0 53 -27.5 73t-95.5 32v43h435v-43q-70 -12 -97.5 -31.5t-27.5 -73.5 v-977q0 -100 116 -98l295 17q154 8 226 127l34 61h45l-40 -129q-25 -72 -21 -125h-965z" glyph-name="Lcaron" horiz-adv-x="1128" unicode="Ľ"/><glyph d="M434 991q-14 0 -25.5 11.5t-11.5 25.5v244q0 35 20.5 57.5t55.5 22.5q41 0 62.5 -27t5.5 -78l-68 -219q-10 -37 -39 -37zM285 -12q-131 0 -131 145v1002q0 72 -26 98.5t-108 17.5v41l226 49q72 16 71 -57v-1147q0 -88 105 -69v-25q-39 -55 -137 -55z" glyph-name="lcaron" horiz-adv-x="530" unicode="ľ"/><glyph d="M61 0v43q68 12 95.5 31.5t27.5 72.5v977q0 53 -27.5 73t-95.5 32v43h435v-43q-70 -12 -97.5 -31.5t-27.5 -73.5v-977q0 -100 116 -98l295 17q154 8 226 127l34 61h45l-40 -129q-25 -72 -21 -125h-965zM692 582q-47 0 -79.5 32.5t-32.5 79.5q0 45 33.5 78t78.5 33t78 -33 t33 -78q0 -47 -33 -79.5t-78 -32.5z" glyph-name="Ldot" horiz-adv-x="1128" unicode="Ŀ"/><glyph d="M285 -12q-131 0 -131 145v1002q0 72 -26 98.5t-108 17.5v41l226 49q72 16 71 -57v-1147q0 -88 105 -69v-25q-39 -55 -137 -55zM547 606q-45 0 -78 33t-33 80t33 79.5t78 32.5t77.5 -33.5t32.5 -78.5t-32.5 -79t-77.5 -34z" glyph-name="ldot" horiz-adv-x="595" unicode="ŀ"/><glyph d="M1102 254l-43 -129q-25 -72 -21 -125h-964v43q70 12 97.5 31.5t27.5 72.5v428l-138 -75v53l138 76v495q0 53 -28 73t-97 32v43h434v-43q-68 -12 -95.5 -31.5t-27.5 -73.5v-391l186 103v-56l-186 -102v-531q0 -100 115 -98l295 17q154 8 225 127l35 61h47z" glyph-name="Lslash" horiz-adv-x="1142" unicode="Ł"/><glyph d="M449 760l-132 -80v-543q0 -88 105 -69v-25q-41 -55 -137 -55q-131 0 -131 145v447l-134 -80v53l134 82v500q0 72 -26 98.5t-108 17.5v41l226 49q72 16 71 -57v-549l132 80v-55z" glyph-name="lslash" horiz-adv-x="497" unicode="ł"/><glyph d="M608 1438q-12 23 17 51l202 215q72 78 129 16q25 -20 13.5 -60t-62.5 -71l-239 -145q-48 -24 -60 -6zM61 0v43q70 12 98.5 31.5t28.5 72.5v977q0 53 -28.5 73t-98.5 32v43h271l747 -975v827q0 53 -27.5 73t-95.5 32v43h320v-43q-70 -12 -98.5 -31.5t-28.5 -73.5v-1124 h-70l-823 1075v-928q0 -53 27.5 -72.5t95.5 -31.5v-43h-318z" glyph-name="Nacute" horiz-adv-x="1337" unicode="Ń"/><glyph d="M512 1090q-12 23 16 51l203 215q72 78 129 16q25 -20 13.5 -60t-62.5 -71l-240 -145q-47 -24 -59 -6zM958 -12q-131 0 -131 145v422q0 129 -60 207t-171 78q-115 0 -181.5 -79t-66.5 -206v-403q0 -55 29 -78t104 -31v-43h-428v43q74 8 102.5 30.5t28.5 78.5v577 q0 74 -25.5 100.5t-107.5 18.5v39l225 51q72 16 72 -61q0 -92 31 -86q6 0 16 10q131 141 291 141q131 0 218 -84t87 -256v-465q0 -92 105 -69v-25q-42 -55 -138 -55z" glyph-name="nacute" horiz-adv-x="1134" unicode="ń"/><glyph d="M61 0v43q70 12 98.5 31.5t28.5 72.5v977q0 53 -28.5 73t-98.5 32v43h271l747 -975v827q0 53 -27.5 73t-95.5 32v43h320v-43q-70 -12 -98.5 -31.5t-28.5 -73.5v-1124h-70l-823 1075v-928q0 -53 27.5 -72.5t95.5 -31.5v-43h-318zM631 -590l-25 29q31 27 52.5 64.5 t21.5 62.5q0 35 -33 35q-45 0 -74.5 29.5t-29.5 76.5q0 49 32.5 79t79.5 30q59 0 91 -43t32 -107q0 -72 -39.5 -142.5t-107.5 -113.5z" glyph-name="Ncommaaccent" horiz-adv-x="1335" unicode="Ņ"/><glyph d="M958 -12q-131 0 -131 145v422q0 129 -60 207t-171 78q-115 0 -181.5 -79t-66.5 -206v-403q0 -55 29 -78t104 -31v-43h-428v43q74 8 102.5 30.5t28.5 78.5v577q0 74 -25.5 100.5t-107.5 18.5v39l225 51q72 16 72 -61q0 -92 31 -86q6 0 16 10q131 141 291 141 q131 0 218 -84t87 -256v-465q0 -92 105 -69v-25q-42 -55 -138 -55zM549 -590l-27 29q31 27 52.5 64.5t21.5 62.5q0 35 -33 35q-45 0 -74.5 29.5t-29.5 76.5q0 49 33.5 79t80.5 30q59 0 90 -43t31 -107q0 -72 -39.5 -142.5t-105.5 -113.5z" glyph-name="ncommaaccent" horiz-adv-x="1134" unicode="ņ"/><glyph d="M668 1442l-250 282l22 27l228 -160l225 160l22 -27zM61 0v43q70 12 98.5 31.5t28.5 72.5v977q0 53 -28.5 73t-98.5 32v43h271l747 -975v827q0 53 -27.5 73t-95.5 32v43h320v-43q-70 -12 -98.5 -31.5t-28.5 -73.5v-1124h-70l-823 1075v-928q0 -53 27.5 -72.5t95.5 -31.5 v-43h-318z" glyph-name="Ncaron" horiz-adv-x="1337" unicode="Ň"/><glyph d="M569 1094l-250 282l23 27l227 -160l226 160l22 -27zM958 -12q-131 0 -131 145v422q0 129 -60 207t-171 78q-115 0 -181.5 -79t-66.5 -206v-403q0 -55 29 -78t104 -31v-43h-428v43q74 8 102.5 30.5t28.5 78.5v577q0 74 -25.5 100.5t-107.5 18.5v39l225 51q72 16 72 -61 q0 -92 31 -86q6 0 16 10q131 141 291 141q131 0 218 -84t87 -256v-465q0 -92 105 -69v-25q-42 -55 -138 -55z" glyph-name="ncaron" horiz-adv-x="1134" unicode="ň"/><glyph d="M956 1272h320v-43q-70 -12 -98.5 -31.5t-28.5 -73.5v-1251q0 -303 -301 -303q-133 0 -205 55.5t-72 134.5q0 47 25 76t72 29q90 0 90 -109q0 -53 26.5 -94t79.5 -41q98 0 99 148v383l-707 923v-928q0 -53 27.5 -72.5t95.5 -31.5v-43h-318v43q70 12 98.5 31.5t28.5 72.5 v977q0 53 -28.5 73t-98.5 32v43h271l747 -975v827q0 53 -27.5 73t-95.5 32v43z" glyph-name="Eng" horiz-adv-x="1337" unicode="Ŋ"/><glyph d="M731 -393q-80 0 -136 31.5t-56 93.5q0 82 79 82q29 0 51.5 -23.5t36 -50.5t32 -50.5t40.5 -23.5q49 0 49 107v792q0 123 -60 199t-171 76q-109 0 -178.5 -79t-69.5 -196v-413q0 -55 29 -78t104 -33v-41h-428v41q74 10 102.5 32.5t28.5 78.5v579q0 72 -25.5 98.5 t-107.5 18.5v39l225 51q72 16 72 -61q0 -92 31 -86q6 0 16 10q131 141 297 141q127 0 213 -83t86 -251v-721q0 -131 -70.5 -205.5t-189.5 -74.5z" glyph-name="eng" horiz-adv-x="1124" unicode="ŋ"/><glyph d="M422 1550q-33 0 -33 29v18q0 29 33 29h596q33 0 33 -29v-18q0 -29 -33 -29h-596zM705 -20q-276 0 -460 184t-184 467q0 287 192.5 480.5t477.5 193.5q276 0 459.5 -184.5t183.5 -465.5q0 -289 -192 -482t-477 -193zM758 47q168 0 287.5 131t119.5 404q0 287 -141 471 t-346 184q-168 0 -288 -130t-120 -400q0 -289 141.5 -474.5t346.5 -185.5z" glyph-name="Omacron" horiz-adv-x="1435" unicode="Ō"/><glyph d="M258 1202q-33 0 -33 29v18q0 29 33 29h596q33 0 33 -29v-18q0 -29 -33 -29h-596zM530 -12q-195 0 -332 130t-137 345t138.5 347t337.5 132q195 0 331 -130t136 -343q0 -215 -138.5 -348t-335.5 -133zM582 45q111 0 178 89t67 259q0 203 -97 347.5t-247 144.5 q-111 0 -177 -88t-66 -258q0 -205 96 -349.5t246 -144.5z" glyph-name="omacron" horiz-adv-x="1064" unicode="ō"/><glyph d="M496 1438q-12 23 18 51l203 215q72 78 129 16q25 -20 13.5 -60t-64.5 -71l-240 -145q-45 -26 -59 -6zM848 1438q-12 23 18 51l203 215q72 78 129 16q25 -20 13.5 -60t-64.5 -71l-240 -145q-45 -26 -59 -6zM705 -20q-276 0 -460 184t-184 467q0 287 192.5 480.5 t477.5 193.5q276 0 459.5 -184.5t183.5 -465.5q0 -289 -192 -482t-477 -193zM758 47q168 0 287.5 131t119.5 404q0 287 -141 471t-346 184q-168 0 -288 -130t-120 -400q0 -289 141.5 -474.5t346.5 -185.5z" glyph-name="Ohungarumlaut" horiz-adv-x="1435" unicode="Ő"/><glyph d="M313 1090q-10 23 19 51l203 215q72 78 129 16q25 -20 13.5 -60t-63.5 -71l-241 -145q-46 -26 -60 -6zM666 1090q-10 23 18 51l203 215q72 78 129 16q25 -20 13.5 -60t-62.5 -71l-242 -145q-45 -26 -59 -6zM530 -12q-195 0 -332 130t-137 345t138.5 347t337.5 132 q195 0 331 -130t136 -343q0 -215 -138.5 -348t-335.5 -133zM582 45q111 0 178 89t67 259q0 203 -97 347.5t-247 144.5q-111 0 -177 -88t-66 -258q0 -205 96 -349.5t246 -144.5z" glyph-name="ohungarumlaut" horiz-adv-x="1064" unicode="ő"/><glyph d="M1890 248h41q-45 -82 -61 -219q-4 -29 -33 -29h-958q-92 -20 -172 -20q-276 0 -461 185t-185 466q0 287 192.5 480.5t475.5 193.5q117 0 215 -33h864q29 0 31 -25q12 -106 41 -223h-39q-39 96 -100.5 143t-163.5 47h-262q-66 0 -96.5 -20t-30.5 -76v-350 q0 -55 29.5 -73.5t97.5 -18.5h203q88 0 120.5 33.5t47.5 113.5h32v-354h-32q-14 78 -47 113.5t-121 35.5h-203q-66 0 -96.5 -19t-30.5 -73v-370q0 -57 40 -78t152 -19l236 2q102 2 148 30t77 81zM266 707q0 -291 142.5 -476.5t345.5 -185.5q137 0 245 74q2 8 2 28v957 q-139 135 -319 135q-172 0 -294 -131t-122 -401z" glyph-name="OE" horiz-adv-x="1968" unicode="Œ"/><glyph d="M1659 217l35 -27q-39 -74 -136.5 -137t-240.5 -63q-123 0 -225.5 53t-165.5 150q-63 -96 -169 -150.5t-227 -54.5q-195 0 -332 130t-137 345t138.5 347t337.5 132q119 0 221 -52t166 -147q63 96 167.5 148.5t231.5 52.5q154 0 244 -74.5t90 -191.5q0 -100 -85 -143 t-304 -54l-185 -8q-63 -2 -51 -86q20 -131 126 -209t245 -78q166 0 256 117zM1024 616q-8 -59 7.5 -76.5t58.5 -15.5l149 2q145 4 197.5 36t52.5 114q0 92 -51.5 152.5t-153.5 60.5q-113 0 -179.5 -73t-80.5 -200zM582 45q111 0 178 89t67 259q0 203 -97 347.5t-247 144.5 q-111 0 -177 -88t-66 -258q0 -205 96 -349.5t246 -144.5z" glyph-name="oe" horiz-adv-x="1765" unicode="œ"/><glyph d="M559 1438q-12 23 16 51l203 215q72 78 129 16q25 -20 13.5 -60t-62.5 -71l-240 -145q-47 -24 -59 -6zM61 0v43q68 12 95.5 31.5t27.5 72.5v977q0 53 -27.5 73t-95.5 32v43h557q238 0 361 -90t123 -254q0 -240 -291 -316q-6 -2 -9 -6t0 -7t9 -5q158 -47 219 -246 q55 -176 92 -240.5t97 -64.5v-43h-56q-143 0 -200.5 63.5t-122.5 262.5q-47 141 -119 196.5t-201 55.5q-88 0 -118.5 -25t-30.5 -86v-320q0 -53 30.5 -72.5t114.5 -31.5v-43h-455zM483 639h148q281 0 280 285q0 291 -286 290h-119q-74 0 -104.5 -19t-30.5 -73v-372 q0 -59 25.5 -85t86.5 -26z" glyph-name="Racute" horiz-adv-x="1259" unicode="Ŕ"/><glyph d="M338 1090q-12 23 16 51l203 215q72 78 129 16q25 -20 13.5 -60t-62.5 -71l-240 -145q-47 -24 -59 -6zM53 0v43q74 8 102.5 30.5t28.5 78.5v577q0 74 -25.5 100.5t-107.5 18.5v39l225 51q72 16 72 -61v-58q0 -18 12.5 -22t30.5 12q123 133 271 133q104 0 146 -52t42 -112 q0 -45 -26.5 -72.5t-67.5 -27.5q-39 0 -62.5 21.5t-23.5 50.5q0 41 -28 69.5t-77 28.5q-90 0 -153.5 -87t-63.5 -226v-383q0 -55 30 -78t107 -31v-43h-432z" glyph-name="racute" horiz-adv-x="880" unicode="ŕ"/><glyph d="M61 0v43q68 12 95.5 31.5t27.5 72.5v977q0 53 -27.5 73t-95.5 32v43h557q238 0 361 -90t123 -254q0 -240 -291 -316q-6 -2 -9 -6t0 -7t9 -5q158 -47 219 -246q55 -176 92 -240.5t97 -64.5v-43h-56q-143 0 -200.5 63.5t-122.5 262.5q-47 141 -119 196.5t-201 55.5 q-88 0 -118.5 -25t-30.5 -86v-320q0 -53 30.5 -72.5t114.5 -31.5v-43h-455zM483 639h148q281 0 280 285q0 291 -286 290h-119q-74 0 -104.5 -19t-30.5 -73v-372q0 -59 25.5 -85t86.5 -26zM633 -590l-25 29q31 25 51.5 63.5t20.5 63.5q0 35 -31 35q-45 0 -74.5 29.5 t-29.5 76.5q0 49 32.5 79t79.5 30q59 0 91 -43t32 -107q0 -72 -40.5 -142.5t-106.5 -113.5z" glyph-name="Rcommaaccent" horiz-adv-x="1259" unicode="Ŗ"/><glyph d="M53 0v43q74 8 102.5 30.5t28.5 78.5v577q0 74 -25.5 100.5t-107.5 18.5v39l225 51q72 16 72 -61v-58q0 -18 12.5 -22t30.5 12q123 133 271 133q104 0 146 -52t42 -112q0 -45 -26.5 -72.5t-67.5 -27.5q-39 0 -62.5 21.5t-23.5 50.5q0 41 -28 69.5t-77 28.5 q-90 0 -153.5 -87t-63.5 -226v-383q0 -55 30 -78t107 -31v-43h-432zM260 -590l-27 29q31 27 52.5 64.5t21.5 62.5q0 35 -33 35q-45 0 -74.5 29.5t-29.5 76.5q0 49 34 79t81 30q59 0 90 -43t31 -107q0 -72 -40 -142.5t-106 -113.5z" glyph-name="rcommaaccent" horiz-adv-x="880" unicode="ŗ"/><glyph d="M618 1442l-249 282l22 27l227 -160l226 160l22 -27zM61 0v43q68 12 95.5 31.5t27.5 72.5v977q0 53 -27.5 73t-95.5 32v43h557q238 0 361 -90t123 -254q0 -240 -291 -316q-6 -2 -9 -6t0 -7t9 -5q158 -47 219 -246q55 -176 92 -240.5t97 -64.5v-43h-56q-143 0 -200.5 63.5 t-122.5 262.5q-47 141 -119 196.5t-201 55.5q-88 0 -118.5 -25t-30.5 -86v-320q0 -53 30.5 -72.5t114.5 -31.5v-43h-455zM483 639h148q281 0 280 285q0 291 -286 290h-119q-74 0 -104.5 -19t-30.5 -73v-372q0 -59 25.5 -85t86.5 -26z" glyph-name="Rcaron" horiz-adv-x="1259" unicode="Ř"/><glyph d="M391 1094l-250 282l23 27l227 -160l225 160l23 -27zM53 0v43q74 8 102.5 30.5t28.5 78.5v577q0 74 -25.5 100.5t-107.5 18.5v39l225 51q72 16 72 -61v-58q0 -18 12.5 -22t30.5 12q123 133 271 133q104 0 146 -52t42 -112q0 -45 -26.5 -72.5t-67.5 -27.5q-39 0 -62.5 21.5 t-23.5 50.5q0 41 -28 69.5t-77 28.5q-90 0 -153.5 -87t-63.5 -226v-383q0 -55 30 -78t107 -31v-43h-432z" glyph-name="rcaron" horiz-adv-x="880" unicode="ř"/><glyph d="M467 1438q-12 23 16 51l203 215q72 78 129 16q25 -20 13.5 -60t-62.5 -71l-240 -145q-47 -24 -59 -6zM512 -20q-203 0 -389 110q-43 106 -40 204.5t48 98.5q25 0 33 -24q49 -154 161.5 -242t260.5 -86q119 4 187.5 60.5t68.5 168.5q0 31 -5.5 56.5t-19.5 48t-24.5 39 t-37 33t-40 25.5t-51 23.5t-51 19.5t-59.5 20.5t-58 19.5q-190 66 -295 159t-105 240q0 156 123 253.5t336 97.5q207 0 367 -95q43 -109 39.5 -206t-48.5 -97q-23 0 -32 25q-49 152 -152.5 232.5t-230.5 80.5q-119 0 -176.5 -66.5t-57.5 -160.5q0 -109 75 -167t224 -108 q74 -25 103.5 -36t98.5 -40.5t102.5 -56t75.5 -67.5t60.5 -93.5t18.5 -115.5q0 -178 -149.5 -266t-360.5 -88z" glyph-name="Sacute" horiz-adv-x="1093" unicode="Ś"/><glyph d="M373 1090q-12 23 16 51l203 215q72 78 129 16q25 -20 13.5 -60t-62.5 -71l-240 -145q-47 -24 -59 -6zM420 -12q-147 0 -253 60.5t-106 170.5q0 47 22.5 72.5t59.5 25.5q35 0 55.5 -21.5t20.5 -47.5q0 -104 71.5 -157.5t170.5 -53.5q88 0 136 41t48 112q0 37 -16.5 69 t-35 49.5t-61.5 37t-65.5 27.5t-75.5 24q-61 18 -107 40t-94.5 54.5t-75 81t-26.5 109.5q0 117 98.5 188.5t257.5 71.5q141 0 240.5 -56.5t99.5 -150.5t-86 -94q-70 0 -69 72q0 80 -61.5 131t-153.5 51q-166 0 -166 -147q0 -84 52 -124t165 -77q70 -23 96.5 -32t87 -36.5 t88 -53.5t52 -69t24.5 -96q0 -123 -111.5 -197.5t-281.5 -74.5z" glyph-name="sacute" horiz-adv-x="874" unicode="ś"/><glyph d="M1022 334q0 -158 -118 -245t-298 -105l-39 -82q80 20 149.5 -24t69.5 -124q0 -82 -68.5 -131t-162.5 -49q-100 0 -157.5 38t-57.5 91q0 49 39 65.5t80 -18.5q0 -135 90 -135q55 0 89 43t34 100q0 47 -27 78t-72 31q-25 0 -54.5 -10.5t-39.5 -10.5q-23 0 -29 15.5t7 38.5 l39 80q-195 4 -373 110q-43 106 -40 204.5t48 98.5q25 0 33 -24q49 -154 161.5 -242t260.5 -86q119 4 187.5 60.5t68.5 168.5q0 31 -5.5 56.5t-19.5 48t-24.5 39t-37 33t-40 25.5t-51 23.5t-51 19.5t-59.5 20.5t-58 19.5q-190 66 -295 159t-105 240q0 156 123 253.5 t336 97.5q207 0 367 -95q43 -109 39.5 -206t-48.5 -97q-23 0 -32 25q-49 152 -152.5 232.5t-230.5 80.5q-119 0 -176.5 -66.5t-57.5 -160.5q0 -109 75 -167t224 -108q74 -25 103.5 -36t98.5 -40.5t102.5 -56t75.5 -67.5t60.5 -93.5t18.5 -115.5z" glyph-name="Scedilla" horiz-adv-x="1093" unicode="Ş"/><glyph d="M813 260q0 -111 -91 -182.5t-237 -85.5l-43 -90q80 20 150 -24t70 -124q0 -82 -69 -131t-163 -49q-100 0 -157.5 38t-57.5 91q0 49 40 65.5t79 -18.5q0 -135 90 -135q55 0 89 43t34 100q0 47 -26.5 78t-71.5 31q-25 0 -54.5 -10.5t-40.5 -10.5q-23 0 -29 15.5t7 38.5 l43 90q-133 8 -223.5 67.5t-90.5 161.5q0 47 22.5 72.5t59.5 25.5q35 0 55.5 -21.5t20.5 -47.5q0 -104 71.5 -157.5t170.5 -53.5q88 0 136 41t48 112q0 37 -16.5 69t-35 49.5t-61.5 37t-65.5 27.5t-75.5 24q-61 18 -107 40t-94.5 54.5t-75 81t-26.5 109.5q0 117 98.5 188.5 t257.5 71.5q141 0 240.5 -56.5t99.5 -150.5t-86 -94q-70 0 -69 72q0 80 -61.5 131t-153.5 51q-166 0 -166 -147q0 -84 52 -124t165 -77q70 -23 96.5 -32t87 -36.5t88 -53.5t52 -69t24.5 -96z" glyph-name="scedilla" horiz-adv-x="874" unicode="ş"/><glyph d="M526 1442l-250 282l23 27l227 -160l226 160l22 -27zM512 -20q-203 0 -389 110q-43 106 -40 204.5t48 98.5q25 0 33 -24q49 -154 161.5 -242t260.5 -86q119 4 187.5 60.5t68.5 168.5q0 31 -5.5 56.5t-19.5 48t-24.5 39t-37 33t-40 25.5t-51 23.5t-51 19.5t-59.5 20.5 t-58 19.5q-190 66 -295 159t-105 240q0 156 123 253.5t336 97.5q207 0 367 -95q43 -109 39.5 -206t-48.5 -97q-23 0 -32 25q-49 152 -152.5 232.5t-230.5 80.5q-119 0 -176.5 -66.5t-57.5 -160.5q0 -109 75 -167t224 -108q74 -25 103.5 -36t98.5 -40.5t102.5 -56t75.5 -67.5 t60.5 -93.5t18.5 -115.5q0 -178 -149.5 -266t-360.5 -88z" glyph-name="Scaron" horiz-adv-x="1093" unicode="Š"/><glyph d="M432 1094l-250 282l23 27l227 -160l225 160l23 -27zM420 -12q-147 0 -253 60.5t-106 170.5q0 47 22.5 72.5t59.5 25.5q35 0 55.5 -21.5t20.5 -47.5q0 -104 71.5 -157.5t170.5 -53.5q88 0 136 41t48 112q0 37 -16.5 69t-35 49.5t-61.5 37t-65.5 27.5t-75.5 24 q-61 18 -107 40t-94.5 54.5t-75 81t-26.5 109.5q0 117 98.5 188.5t257.5 71.5q141 0 240.5 -56.5t99.5 -150.5t-86 -94q-70 0 -69 72q0 80 -61.5 131t-153.5 51q-166 0 -166 -147q0 -84 52 -124t165 -77q70 -23 96.5 -32t87 -36.5t88 -53.5t52 -69t24.5 -96 q0 -123 -111.5 -197.5t-281.5 -74.5z" glyph-name="scaron" horiz-adv-x="874" unicode="š"/><glyph d="M1130 1260l31 -254h-47q-43 121 -92 160.5t-156 39.5q-111 0 -138.5 -23.5t-27.5 -99.5v-936q0 -55 40 -74.5t167 -29.5v-43h-241l-48 -98q80 20 150 -24t70 -124q0 -82 -69 -131t-163 -49q-100 0 -157.5 38t-57.5 91q0 49 40 65.5t79 -18.5q0 -135 90 -135q55 0 89 43 t34 100q0 47 -26.5 78t-71.5 31q-25 0 -54.5 -10.5t-40.5 -10.5q-23 0 -28.5 15.5t6.5 38.5l49 100h-252v43q129 10 169 29.5t40 74.5v936q0 76 -28.5 99.5t-139.5 23.5q-106 0 -155.5 -40t-92.5 -160h-47l33 254q2 16 22 16q66 -4 136 -4h729q74 0 135 4q22 0 24 -16z" glyph-name="Tcommaaccent" horiz-adv-x="1212" unicode="Ţ"/><glyph d="M438 858q-63 2 -82.5 -10t-19.5 -53v-541q0 -98 27.5 -147.5t99.5 -49.5q57 0 115 37l18 -28q-70 -74 -176 -76l-43 -88q80 20 149.5 -24t69.5 -124q0 -82 -68.5 -131t-162.5 -49q-100 0 -157.5 38t-57.5 91q0 49 39.5 65.5t78.5 -18.5q0 -135 90 -135q55 0 89 43t34 100 q0 47 -26.5 78t-71.5 31q-25 0 -54.5 -10.5t-39.5 -10.5q-23 0 -29 15.5t6 38.5l49 100h13q-156 41 -156 231v568q0 37 -11 50t-34 13h-96v45q154 59 241 215q8 16 27 17h18q20 0 21 -21l-2 -141q0 -33 19.5 -43t82.5 -10h158v-74z" glyph-name="tcommaaccent" horiz-adv-x="657" unicode="ţ"/><glyph d="M608 1442l-250 282l23 27l227 -160l226 160l22 -27zM305 0v43q129 10 169 29.5t40 74.5v936q0 76 -28.5 99.5t-139.5 23.5q-106 0 -155.5 -40t-92.5 -160h-47l33 254q2 16 22 16q66 -4 136 -4h729q74 0 135 4q23 0 24 -16l31 -254h-47q-43 121 -92 160.5t-156 39.5 q-111 0 -138.5 -23.5t-27.5 -99.5v-936q0 -55 40 -74.5t167 -29.5v-43h-602z" glyph-name="Tcaron" horiz-adv-x="1212" unicode="Ť"/><glyph d="M463 1012q-33 0 -37 37l6 243q4 80 68 80q41 0 60.5 -26.5t4.5 -77.5l-63 -219q-10 -37 -39 -37zM410 -10q-109 0 -173.5 59.5t-64.5 181.5v568q0 37 -11 50t-34 13h-96v45q154 59 241 215q8 16 27 17h18q20 0 21 -21l-2 -141q0 -33 19.5 -43t82.5 -10h158v-74l-158 8 q-63 2 -82.5 -10t-19.5 -53v-541q0 -98 27.5 -147.5t99.5 -49.5q57 0 115 37l18 -28q-71 -76 -186 -76z" glyph-name="tcaron" horiz-adv-x="647" unicode="ť"/><glyph d="M1130 1260l31 -254h-47q-43 121 -92 160.5t-156 39.5q-111 0 -138.5 -23.5t-27.5 -99.5v-241h250v-47h-250v-648q0 -55 40 -74.5t167 -29.5v-43h-602v43q129 10 169 29.5t40 74.5v648h-250v47h250v241q0 76 -28.5 99.5t-139.5 23.5q-106 0 -155.5 -40t-92.5 -160h-47 l33 254q2 16 22 16q66 -4 136 -4h729q74 0 135 4q22 0 24 -16z" glyph-name="Tbar" horiz-adv-x="1212" unicode="Ŧ"/><glyph d="M438 858q-63 2 -82.5 -10t-19.5 -53v-72h215v-57h-215v-412q0 -98 27.5 -147.5t99.5 -49.5q57 0 115 37l18 -28q-72 -76 -186 -76q-109 0 -173.5 59.5t-64.5 181.5v435h-141v57h141v76q0 37 -11 50t-34 13h-96v45q154 59 241 215q8 16 27 17h18q20 0 21 -21l-2 -141 q0 -33 19.5 -43t82.5 -10h158v-74z" glyph-name="tbar" horiz-adv-x="657" unicode="ŧ"/><glyph d="M426 1550q-33 0 -33 29v18q0 29 33 29h596q33 0 33 -29v-18q0 -29 -33 -29h-596zM674 -20q-225 0 -362.5 135t-137.5 401v608q0 53 -27.5 73t-95.5 32v43h434v-43q-70 -12 -97.5 -31.5t-27.5 -73.5v-569q0 -244 93.5 -365.5t261.5 -121.5q162 0 267 111.5t105 363.5v581 q0 53 -29.5 73t-101.5 32v43h332v-43q-70 -12 -98.5 -31.5t-28.5 -73.5v-596q0 -264 -127 -406t-360 -142z" glyph-name="Umacron" horiz-adv-x="1339" unicode="Ū"/><glyph d="M266 1202q-33 0 -33 29v18q0 29 33 29h596q33 0 33 -29v-18q0 -29 -33 -29h-596zM483 -12q-127 0 -213 83t-86 248v410q0 74 -25.5 98.5t-107.5 20.5v39l225 51q72 16 72 -59v-514q0 -125 61.5 -202t172 -77t178 78t67.5 201v364q0 74 -25.5 98.5t-107.5 20.5v39l226 51 q72 16 71 -59v-742q0 -88 105 -69v-25q-41 -55 -138 -55q-119 0 -135 123q-4 25 -18 24.5t-27 -12.5l-16 -17q-14 -14 -24.5 -22t-31 -24.5t-42 -26.5t-50 -21.5t-61.5 -17.5t-70 -6z" glyph-name="umacron" horiz-adv-x="1144" unicode="ū"/><glyph d="M532.5 1149q-124.5 0 -196.5 69.5t-72 174.5q0 23 17 22h22q16 0 21 -16q10 -53 66 -93t142 -40t142.5 40t68.5 93q4 16 21 16h22q16 0 17 -22q0 -104 -73 -174t-197.5 -70zM483 -12q-127 0 -213 83t-86 248v410q0 74 -25.5 98.5t-107.5 20.5v39l225 51q72 16 72 -59 v-514q0 -125 61.5 -202t172 -77t178 78t67.5 201v364q0 74 -25.5 98.5t-107.5 20.5v39l226 51q72 16 71 -59v-742q0 -88 105 -69v-25q-41 -55 -138 -55q-119 0 -135 123q-4 25 -18 24.5t-27 -12.5l-16 -17q-14 -14 -24.5 -22t-31 -24.5t-42 -26.5t-50 -21.5t-61.5 -17.5 t-70 -6z" glyph-name="ubreve" horiz-adv-x="1144" unicode="ŭ"/><glyph d="M719 1477q-78 0 -130 53t-52 125q0 74 51 126t131 52q78 0 129 -51t51 -127q0 -72 -51 -125t-129 -53zM719 1550q43 0 71.5 29t28.5 76q0 45 -28.5 74.5t-71.5 29.5t-72 -29.5t-29 -74.5q0 -47 29 -76t72 -29zM674 -20q-225 0 -362.5 135t-137.5 401v608q0 53 -27.5 73 t-95.5 32v43h434v-43q-70 -12 -97.5 -31.5t-27.5 -73.5v-569q0 -244 93.5 -365.5t261.5 -121.5q162 0 267 111.5t105 363.5v581q0 53 -29.5 73t-101.5 32v43h332v-43q-70 -12 -98.5 -31.5t-28.5 -73.5v-596q0 -264 -127 -406t-360 -142z" glyph-name="Uring" horiz-adv-x="1339" unicode="Ů"/><glyph d="M444.5 1128q-77.5 0 -129 53.5t-51.5 125.5q0 76 51.5 127t128.5 51q80 0 131.5 -52.5t51.5 -125.5q0 -72 -52.5 -125.5t-130 -53.5zM444 1202q43 0 72 29t29 76q0 45 -29 74.5t-72 29.5t-71.5 -29.5t-28.5 -74.5q0 -47 28.5 -76t71.5 -29zM483 -12q-127 0 -213 83 t-86 248v410q0 74 -25.5 98.5t-107.5 20.5v39l225 51q72 16 72 -59v-514q0 -125 61.5 -202t172 -77t178 78t67.5 201v364q0 74 -25.5 98.5t-107.5 20.5v39l226 51q72 16 71 -59v-742q0 -88 105 -69v-25q-41 -55 -138 -55q-119 0 -135 123q-4 25 -18 24.5t-27 -12.5l-16 -17 q-14 -14 -24.5 -22t-31 -24.5t-42 -26.5t-50 -21.5t-61.5 -17.5t-70 -6z" glyph-name="uring" horiz-adv-x="1144" unicode="ů"/><glyph d="M500 1438q-12 23 18 51l203 215q72 78 129 16q25 -20 13.5 -60t-64.5 -71l-240 -145q-45 -26 -59 -6zM852 1438q-12 23 18 51l203 215q72 78 129 16q25 -20 13.5 -60t-64.5 -71l-240 -145q-45 -26 -59 -6zM674 -20q-225 0 -362.5 135t-137.5 401v608q0 53 -27.5 73 t-95.5 32v43h434v-43q-70 -12 -97.5 -31.5t-27.5 -73.5v-569q0 -244 93.5 -365.5t261.5 -121.5q162 0 267 111.5t105 363.5v581q0 53 -29.5 73t-101.5 32v43h332v-43q-70 -12 -98.5 -31.5t-28.5 -73.5v-596q0 -264 -127 -406t-360 -142z" glyph-name="Uhungarumlaut" horiz-adv-x="1339" unicode="Ű"/><glyph d="M217 1090q-12 23 19 51l202 215q72 76 127 16q25 -20 13.5 -60t-62.5 -71l-240 -145q-45 -26 -59 -6zM569 1090q-12 23 19 51l203 215q72 76 127 16q25 -20 13.5 -60t-63.5 -71l-239 -145q-46 -26 -60 -6zM483 -12q-127 0 -213 83t-86 248v410q0 74 -25.5 98.5 t-107.5 20.5v39l225 51q72 16 72 -59v-514q0 -125 61.5 -202t172 -77t178 78t67.5 201v364q0 74 -25.5 98.5t-107.5 20.5v39l226 51q72 16 71 -59v-742q0 -88 105 -69v-25q-41 -55 -138 -55q-119 0 -135 123q-4 25 -18 24.5t-27 -12.5l-16 -17q-14 -14 -24.5 -22t-31 -24.5 t-42 -26.5t-50 -21.5t-61.5 -17.5t-70 -6z" glyph-name="uhungarumlaut" horiz-adv-x="1144" unicode="ű"/><glyph d="M956 1272h332v-43q-70 -12 -98.5 -31.5t-28.5 -73.5v-596q0 -430 -319 -526h2q-156 -100 -156 -231q0 -49 34 -79t77 -30q115 0 164 111h51q-74 -195 -260 -195q-84 0 -150.5 45t-66.5 127q0 139 180 232q-14 -2 -43 -2q-225 0 -362.5 135t-137.5 401v608q0 53 -27.5 73 t-95.5 32v43h434v-43q-70 -12 -97.5 -31.5t-27.5 -73.5v-569q0 -244 93.5 -365.5t261.5 -121.5q162 0 267 111.5t105 363.5v581q0 53 -29.5 73t-101.5 32v43z" glyph-name="Uogonek" horiz-adv-x="1339" unicode="Ų"/><glyph d="M991 137q0 -88 105 -69v-25q-23 -31 -84 -49q-268 -72 -269 -199q0 -55 29 -83.5t76 -28.5q90 0 143 116h53q-27 -70 -92 -135t-164 -65q-82 0 -139 41t-57 129q0 86 80 148.5t209 90.5q-49 33 -58 103q-4 25 -18 24.5t-27 -12.5l-16 -17q-14 -14 -24.5 -22t-31 -24.5 t-42 -26.5t-50 -21.5t-61.5 -17.5t-70 -6q-127 0 -213 83t-86 248v410q0 74 -25.5 98.5t-107.5 20.5v39l225 51q72 16 72 -59v-514q0 -125 61.5 -202t172 -77t178 78t67.5 201v364q0 74 -25.5 98.5t-107.5 20.5v39l226 51q72 16 71 -59v-742z" glyph-name="uogonek" horiz-adv-x="1144" unicode="ų"/><glyph d="M1036 1757l248 -282l-22 -29l-226 160l-227 -160l-23 29zM635 0l-402 1028q-43 113 -79.5 152t-112.5 49v43h451v-43q-90 -14 -105.5 -45t12.5 -92l318 -824q20 -49 41 0l200 520q39 104 -12 240q-45 115 -81 153t-111 48v43h448v-43q-90 -14 -105.5 -45t15.5 -92 l315 -824q20 -49 41 0l312 813q45 127 -129 148v43h387v-43q-74 -14 -114 -45t-69 -103l-356 -923q-39 -106 -39 -158h-114l-310 799l-248 -641q-41 -111 -40 -158h-113z" glyph-name="Wcircumflex" horiz-adv-x="2078" unicode="Ŵ"/><glyph d="M684 1409l248 -283l-23 -28l-225 159l-227 -159l-23 28zM457 0l-273 692q-37 96 -66.5 130t-97.5 59v43h404v-43q-84 -25 -95.5 -56.5t29.5 -132.5l170 -436q14 -35 25.5 -46t23 0t23.5 46l64 178q61 168 10 297q-25 61 -56.5 93t-95.5 57v43h402v-43 q-82 -25 -93.5 -56.5t27.5 -132.5l172 -436q14 -35 25.5 -46t23 0t23.5 46l78 223q49 135 68.5 207t12 114t-28 54t-73.5 27v43h365v-43q-90 -25 -126 -59t-75 -130l-272 -692h-95l-204 520l-203 -520h-92z" glyph-name="wcircumflex" horiz-adv-x="1544" unicode="ŵ"/><glyph d="M643 1757l248 -282l-23 -29l-225 160l-227 -160l-23 29zM395 0v43q96 12 130 30.5t34 73.5v349q0 47 -43 116l-268 424q-61 96 -107.5 135t-109.5 58v43h454v-43q-80 -16 -91 -49t32 -97l266 -421q14 -18 29 0l252 413q39 55 29.5 88t-35 46.5t-72.5 19.5v43h377v-43 q-74 -8 -120 -43t-105 -129l-273 -436q-29 -47 -29 -125v-349q0 -55 34 -73.5t130 -30.5v-43h-514z" glyph-name="Ycircumflex" horiz-adv-x="1302" unicode="Ŷ"/><glyph d="M541 1409l247 -283l-22 -28l-225 159l-228 -159l-22 28zM244 -406q-76 0 -120 35t-44 90q0 45 29.5 73t74.5 28q39 0 57.5 -23.5t20.5 -52.5t13.5 -52.5t39.5 -23.5q63 0 123 152q47 121 -8 268l-246 604q-39 98 -68.5 131t-95.5 58v43h408v-43q-84 -25 -95 -56.5 t29 -132.5l183 -448q14 -31 24.5 -40t21.5 1t25 41l91 233q51 129 73.5 204t13 115t-31 54t-74.5 29v43h363v-43q-88 -25 -126 -59t-75 -130l-344 -850q-53 -129 -105.5 -188.5t-156.5 -59.5z" glyph-name="ycircumflex" horiz-adv-x="1071" unicode="ŷ"/><glyph d="M455 1511q-41 0 -72 32t-31 73t31 71.5t72 30.5t71.5 -30.5t30.5 -71.5t-30.5 -73t-71.5 -32zM831.5 1511q-40.5 0 -71.5 32t-31 73t31 71.5t71.5 30.5t71.5 -30.5t31 -71.5t-31 -73t-71.5 -32zM395 0v43q96 12 130 30.5t34 73.5v349q0 47 -43 116l-268 424 q-61 96 -107.5 135t-109.5 58v43h454v-43q-80 -16 -91 -49t32 -97l266 -421q14 -18 29 0l252 413q39 55 29.5 88t-35 46.5t-72.5 19.5v43h377v-43q-74 -8 -120 -43t-105 -129l-273 -436q-29 -47 -29 -125v-349q0 -55 34 -73.5t130 -30.5v-43h-514z" glyph-name="Ydieresis" horiz-adv-x="1302" unicode="Ÿ"/><glyph d="M532 1438q-12 23 17 51l203 215q72 78 129 16q25 -20 13.5 -60t-63.5 -71l-239 -145q-48 -24 -60 -6zM31 0l807 1186q18 35 -19 35l-370 -2q-145 0 -208 -49.5t-102 -153.5h-49l41 256h981l-809 -1186q-10 -12 -4 -23.5t23 -11.5l434 6q129 2 192.5 46t114.5 145h49 l-53 -248h-1028z" glyph-name="Zacute" horiz-adv-x="1163" unicode="Ź"/><glyph d="M395 1090q-12 23 17 51l202 215q72 78 129 16q25 -20 13.5 -60t-62.5 -71l-239 -145q-48 -24 -60 -6zM31 0l577 825q23 37 -18 37h-285q-70 0 -109.5 -40t-66.5 -122h-43l37 224h749l-575 -824q-10 -16 -5 -27.5t23 -11.5h303q70 0 110 40t69 122h43l-37 -223h-772z" glyph-name="zacute" horiz-adv-x="903" unicode="ź"/><glyph d="M592 1511q-41 0 -72 32t-31 73t31 71.5t72 30.5t71.5 -30.5t30.5 -71.5t-30.5 -73t-71.5 -32zM31 0l807 1186q18 35 -19 35l-370 -2q-145 0 -208 -49.5t-102 -153.5h-49l41 256h981l-809 -1186q-10 -12 -4 -23.5t23 -11.5l434 6q129 2 192.5 46t114.5 145h49l-53 -248 h-1028z" glyph-name="Zdotaccent" horiz-adv-x="1163" unicode="Ż"/><glyph d="M455 1163q-41 0 -72 32t-31 73t31 71.5t72 30.5t71.5 -30.5t30.5 -71.5t-30.5 -73t-71.5 -32zM31 0l577 825q23 37 -18 37h-285q-70 0 -109.5 -40t-66.5 -122h-43l37 224h749l-575 -824q-10 -16 -5 -27.5t23 -11.5h303q70 0 110 40t69 122h43l-37 -223h-772z" glyph-name="zdotaccent" horiz-adv-x="903" unicode="ż"/><glyph d="M592 1442l-250 282l23 27l227 -160l225 160l23 -27zM31 0l807 1186q18 35 -19 35l-370 -2q-145 0 -208 -49.5t-102 -153.5h-49l41 256h981l-809 -1186q-10 -12 -4 -23.5t23 -11.5l434 6q129 2 192.5 46t114.5 145h49l-53 -248h-1028z" glyph-name="Zcaron" horiz-adv-x="1163" unicode="Ž"/><glyph d="M455 1094l-250 282l22 27l228 -160l225 160l22 -27zM31 0l577 825q23 37 -18 37h-285q-70 0 -109.5 -40t-66.5 -122h-43l37 224h749l-575 -824q-10 -16 -5 -27.5t23 -11.5h303q70 0 110 40t69 122h43l-37 -223h-772z" glyph-name="zcaron" horiz-adv-x="903" unicode="ž"/><glyph d="M78 -440q-121 0 -191.5 55t-70.5 127q0 43 26.5 62.5t61.5 19.5q41 0 62.5 -34t26.5 -75t32.5 -74.5t83.5 -33.5q88 0 118.5 71.5t30.5 223.5v923q0 43 -45 43h-86v39q70 8 100.5 22.5t30.5 47.5v27q0 180 96.5 276t245.5 96q123 0 193.5 -55t70.5 -127 q0 -41 -26.5 -60.5t-61.5 -19.5q-41 0 -62.5 34t-27.5 74t-33.5 73.5t-83.5 33.5q-88 0 -117.5 -71.5t-29.5 -223.5v-57q0 -53 39 -53h223v-56h-223q-39 0 -39 -43v-891q0 -180 -96 -277t-248 -97z" glyph-name="florin" horiz-adv-x="843" unicode="ƒ"/><glyph d="M512 -20q-203 0 -389 110q-43 106 -40 204.5t48 98.5q25 0 33 -24q49 -154 161.5 -242t260.5 -86q119 4 187.5 60.5t68.5 168.5q0 31 -5.5 56.5t-19.5 48t-24.5 39t-37 33t-40 25.5t-51 23.5t-51 19.5t-59.5 20.5t-58 19.5q-190 66 -295 159t-105 240q0 156 123 253.5 t336 97.5q207 0 367 -95q43 -109 39.5 -206t-48.5 -97q-23 0 -32 25q-49 152 -152.5 232.5t-230.5 80.5q-119 0 -176.5 -66.5t-57.5 -160.5q0 -109 75 -167t224 -108q74 -25 103.5 -36t98.5 -40.5t102.5 -56t75.5 -67.5t60.5 -93.5t18.5 -115.5q0 -178 -149.5 -266 t-360.5 -88zM526 -590l-26 29q31 27 52 64.5t21 62.5q0 35 -32 35q-45 0 -75 29.5t-30 76.5q0 49 34 79t81 30q59 0 90 -43t31 -107q0 -72 -40 -142.5t-106 -113.5z" glyph-name="Scommaaccent" horiz-adv-x="1097" unicode="Ș"/><glyph d="M420 -12q-147 0 -253 60.5t-106 170.5q0 47 22.5 72.5t59.5 25.5q35 0 55.5 -21.5t20.5 -47.5q0 -104 71.5 -157.5t170.5 -53.5q88 0 136 41t48 112q0 37 -16.5 69t-35 49.5t-61.5 37t-65.5 27.5t-75.5 24q-61 18 -107 40t-94.5 54.5t-75 81t-26.5 109.5 q0 117 98.5 188.5t257.5 71.5q141 0 240.5 -56.5t99.5 -150.5t-86 -94q-70 0 -69 72q0 80 -61.5 131t-153.5 51q-166 0 -166 -147q0 -84 52 -124t165 -77q70 -23 96.5 -32t87 -36.5t88 -53.5t52 -69t24.5 -96q0 -123 -111.5 -197.5t-281.5 -74.5zM410 -590l-27 29 q31 27 52.5 64.5t21.5 62.5q0 35 -33 35q-45 0 -75 29.5t-30 76.5q0 49 34 79t81 30q59 0 90 -43t31 -107q0 -72 -39.5 -142.5t-105.5 -113.5z" glyph-name="scommaaccent" horiz-adv-x="874" unicode="ș"/><glyph d="M305 0v43q129 10 169 29.5t40 74.5v936q0 76 -28.5 99.5t-139.5 23.5q-106 0 -155.5 -40t-92.5 -160h-47l33 254q2 16 22 16q66 -4 136 -4h729q74 0 135 4q23 0 24 -16l31 -254h-47q-43 121 -92 160.5t-156 39.5q-111 0 -138.5 -23.5t-27.5 -99.5v-936q0 -55 40 -74.5 t167 -29.5v-43h-602zM573 -590l-24 29q31 25 51.5 63.5t20.5 63.5q0 35 -31 35q-45 0 -75 29.5t-30 76.5q0 49 33 79t80 30q59 0 91 -43t32 -107q0 -72 -41 -142.5t-107 -113.5z" glyph-name="uni021A" horiz-adv-x="1212" unicode="Ț"/><glyph d="M410 -10q-109 0 -173.5 59.5t-64.5 181.5v568q0 37 -11 50t-34 13h-96v45q154 59 241 215q8 16 27 17h18q20 0 21 -21l-2 -141q0 -33 19.5 -43t82.5 -10h158v-74l-158 8q-63 2 -82.5 -10t-19.5 -53v-541q0 -98 27.5 -147.5t99.5 -49.5q57 0 115 37l18 -28 q-71 -76 -186 -76zM344 -590l-27 29q31 27 52.5 64.5t21.5 62.5q0 35 -33 35q-45 0 -74.5 29.5t-29.5 76.5q0 49 34 79t81 30q59 0 89.5 -43t30.5 -107q0 -72 -39.5 -142.5t-105.5 -113.5z" glyph-name="uni021B" horiz-adv-x="657" unicode="ț"/><glyph d="M74 -410q-78 0 -135.5 33t-57.5 94q0 37 21.5 59.5t60.5 22.5q29 0 51.5 -23.5t35.5 -53t31.5 -53t41.5 -23.5q49 0 49 106v977q0 74 -25.5 100.5t-107.5 18.5v39l225 51q72 16 72 -59v-1006q0 -133 -71.5 -208t-190.5 -75z" glyph-name="uni0237" horiz-adv-x="468" unicode="ȷ"/><glyph d="M281 1409l247 -283l-22 -28l-225 159l-228 -159l-22 28z" glyph-name="circumflex" horiz-adv-x="559" unicode="ˆ"/><glyph d="M281 1094l-250 282l22 27l228 -160l225 160l22 -27z" glyph-name="caron" horiz-adv-x="559" unicode="ˇ"/><glyph d="M371 1149q-125 0 -197 69.5t-72 174.5q0 23 17 22h22q16 0 21 -16q10 -53 66.5 -93t142.5 -40t142 40t69 93q4 16 20 16h23q16 0 16 -22q0 -104 -72.5 -174t-197.5 -70z" glyph-name="breve" horiz-adv-x="743" unicode="˘"/><glyph d="M205 1163q-41 0 -72 32t-31 73t31 71.5t72 30.5t71.5 -30.5t30.5 -71.5t-30.5 -73t-71.5 -32z" glyph-name="dotaccent" horiz-adv-x="409" unicode="˙"/><glyph d="M282.5 1128q-77.5 0 -129 53.5t-51.5 125.5q0 76 51.5 127t129 51t130 -52.5t52.5 -125.5q0 -72 -52.5 -125.5t-130 -53.5zM283 1202q43 0 71.5 29t28.5 76q0 45 -28.5 74.5t-71.5 29.5t-72 -29.5t-29 -74.5q0 -47 29 -76t72 -29z" glyph-name="ring" horiz-adv-x="567" unicode="˚"/><glyph d="M291 -389q-84 0 -150.5 45t-66.5 127q0 88 68.5 151.5t158.5 100.5h80q-156 -100 -156 -232q0 -49 34 -78.5t77 -29.5q115 0 164 110h51q-74 -194 -260 -194z" glyph-name="ogonek" horiz-adv-x="632" unicode="˛"/><glyph d="M616 1126q-88 0 -216 64.5t-167 64.5q-35 0 -60.5 -24.5t-25.5 -69.5h-45q0 102 56.5 158.5t140.5 56.5q86 0 214 -64.5t169 -64.5q35 0 60.5 25.5t25.5 68.5h45q0 -102 -56.5 -158.5t-140.5 -56.5z" glyph-name="tilde" horiz-adv-x="915" unicode="˜"/><glyph d="M94 1090q-10 23 19 51l202 215q72 78 129 16q25 -20 13.5 -60t-62.5 -71l-241 -145q-46 -26 -60 -6zM446 1090q-10 23 19 51l203 215q72 78 129 16q25 -20 13.5 -60t-62.5 -71l-242 -145q-46 -26 -60 -6z" glyph-name="hungarumlaut" horiz-adv-x="940" unicode="˝"/><glyph d="M-467 1090q-12 23 16 51l203 215q72 78 129 16q25 -20 13.5 -60t-62.5 -71l-240 -145q-47 -24 -59 -6z" glyph-name="acutecomb" horiz-adv-x="0" unicode="́"/><glyph d="M-248 -590l-26 29q31 27 52 64.5t21 62.5q0 35 -32 35q-45 0 -75 29.5t-30 76.5q0 49 34 79t81 30q59 0 90 -43t31 -107q0 -72 -40 -142.5t-106 -113.5z" glyph-name="uni0326" horiz-adv-x="0" unicode="̦"/><glyph d="M41 0l573 1298l562 -1298h-1135zM186 147h740l-361 873z" glyph-name="Delta" horiz-adv-x="1216" unicode="Δ"/><glyph d="M1255 236h54l-43 -189q-12 -47 -62 -47h-352v242q113 10 178.5 136t65.5 345q0 231 -111 364.5t-289 133.5t-289.5 -133.5t-111.5 -364.5q0 -219 65.5 -345t180.5 -136v-242h-353q-51 0 -61 47l-45 189h55l35 -56q47 -78 141 -84l140 -6q18 -2 23 13.5t1 54.5 q-160 43 -272.5 199.5t-112.5 344.5q0 238 176 420.5t428 182.5t428 -182.5t176 -420.5q0 -178 -114.5 -338.5t-274.5 -205.5q-4 -39 2.5 -54.5t26.5 -13.5l113 6q70 2 106.5 21.5t61.5 62.5z" glyph-name="Omega" horiz-adv-x="1390" unicode="Ω"/><glyph d="M991 137q0 -88 105 -69v-25q-41 -55 -138 -55q-119 0 -135 123q-4 25 -18 24.5t-27 -12.5l-16 -17q-14 -14 -24.5 -22t-31 -24.5t-42 -26.5t-50 -21.5t-61.5 -17.5t-70 -6q-137 0 -219 88q4 -94 23.5 -163t41 -96.5t37 -50t13.5 -38.5q-12 -94 -84 -129q-61 -31 -94 26 q-16 29 -17 78v1026q0 74 -25.5 98.5t-107.5 20.5v39l225 51q72 16 72 -59v-514q0 -125 61.5 -202t172 -77t178 78t67.5 201v364q0 74 -25.5 98.5t-107.5 20.5v39l226 51q72 16 71 -59v-742z" glyph-name="mu" horiz-adv-x="1144" unicode="μ"/><glyph d="M1249 197q57 -29 35 -113q-23 -70 -103.5 -95.5t-179.5 15.5q-78 35 -112.5 96.5t-34.5 165.5v531h-281v-559q0 -115 -65.5 -182.5t-149.5 -67.5q-80 0 -137 20l-26 64q82 -18 146.5 28.5t64.5 141.5v555h-115q-51 0 -74.5 -45t-5.5 -121l-74 16q-25 68 -24 119 q0 70 46 114t117 44h951v-127h-150q-31 0 -44 -14.5t-13 -49.5v-565q0 -80 49 -100q16 -6 30.5 17.5t29 58t18.5 40.5q12 18 41.5 23.5t60.5 -10.5z" glyph-name="pi" horiz-adv-x="1400" unicode="π"/><glyph d="M674 1438q-14 -20 -60 6l-239 145q-51 31 -62.5 71t13.5 60q55 59 127 -16l202 -215q31 -28 19 -51zM61 0v43q68 12 95.5 31.5t27.5 72.5v977q0 53 -27.5 73t-95.5 32v43h930q29 0 31 -25q12 -106 41 -223h-39q-39 96 -100.5 143t-163.5 47h-262q-66 0 -96.5 -20 t-30.5 -76v-350q0 -55 29.5 -73.5t97.5 -18.5h202q88 0 121 33.5t47 113.5h33v-354h-33q-14 78 -47 113.5t-121 35.5h-202q-66 0 -96.5 -19t-30.5 -73v-370q0 -57 40 -78t152 -19l236 2q102 2 148 30t77 81l49 76h41q-45 -82 -61 -219q-4 -29 -33 -29h-959z" glyph-name="uni0400" horiz-adv-x="1150" unicode="Ѐ"/><glyph d="M393 1511q-41 0 -71.5 32t-30.5 73t30.5 71.5t71.5 30.5t72 -30.5t31 -71.5t-31 -73t-72 -32zM770 1511q-41 0 -71.5 32t-30.5 73t30.5 71.5t71.5 30.5t71.5 -30.5t30.5 -71.5t-30.5 -73t-71.5 -32zM61 0v43q68 12 95.5 31.5t27.5 72.5v977q0 53 -27.5 73t-95.5 32v43 h930q29 0 31 -25q12 -106 41 -223h-39q-39 96 -100.5 143t-163.5 47h-262q-66 0 -96.5 -20t-30.5 -76v-350q0 -55 29.5 -73.5t97.5 -18.5h202q88 0 121 33.5t47 113.5h33v-354h-33q-14 78 -47 113.5t-121 35.5h-202q-66 0 -96.5 -19t-30.5 -73v-370q0 -57 40 -78t152 -19 l236 2q102 2 148 30t77 81l49 76h41q-45 -82 -61 -219q-4 -29 -33 -29h-959z" glyph-name="afii10023" horiz-adv-x="1150" unicode="Ё"/><glyph d="M451 1438q-12 23 16 51l203 215q72 78 129 16q25 -20 13.5 -60t-62.5 -71l-240 -145q-47 -24 -59 -6zM61 0v43q68 12 95.5 31.5t27.5 72.5v977q0 53 -26.5 73t-96.5 34v41h908l63 -230h-47q-53 109 -87 142t-103 33h-299q-66 0 -95.5 -19.5t-29.5 -73.5v-977 q0 -53 30.5 -72.5t114.5 -31.5v-43h-455z" glyph-name="afii10052" horiz-adv-x="1083" unicode="Ѓ"/><glyph d="M1208 285l29 -25q-55 -100 -187 -190t-327 -90q-270 0 -466 180t-196 481q0 303 200 483.5t478 180.5q215 0 349.5 -102.5t134.5 -223.5q0 -55 -32 -91t-85 -36q-47 0 -78 33t-35 94q-8 102 -88 181t-233 79q-182 0 -298 -124t-126 -341l6 6q0 -121 70 -121h458v-63h-444 q-35 0 -47 -23.5t4 -83.5l-6 7q63 -180 211.5 -285t339.5 -105q208 1 368 179z" glyph-name="afii10053" horiz-adv-x="1308" unicode="Є"/><glyph d="M512 -20q-203 0 -389 110q-43 106 -40 204.5t48 98.5q25 0 33 -24q49 -154 161.5 -242t260.5 -86q119 4 187.5 60.5t68.5 168.5q0 31 -5.5 56.5t-19.5 48t-24.5 39t-37 33t-40 25.5t-51 23.5t-51 19.5t-59.5 20.5t-58 19.5q-190 66 -295 159t-105 240q0 156 123 253.5 t336 97.5q207 0 367 -95q43 -109 39.5 -206t-48.5 -97q-23 0 -32 25q-49 152 -152.5 232.5t-230.5 80.5q-119 0 -176.5 -66.5t-57.5 -160.5q0 -109 75 -167t224 -108q74 -25 103.5 -36t98.5 -40.5t102.5 -56t75.5 -67.5t60.5 -93.5t18.5 -115.5q0 -178 -149.5 -266 t-360.5 -88z" glyph-name="afii10054" horiz-adv-x="1093" unicode="Ѕ"/><glyph d="M61 0v43q68 12 95.5 31.5t27.5 72.5v977q0 53 -27.5 73t-95.5 32v43h435v-43q-70 -12 -97.5 -31.5t-27.5 -73.5v-977q0 -53 27.5 -72.5t97.5 -31.5v-43h-435z" glyph-name="afii10055" horiz-adv-x="557" unicode="І"/><glyph d="M88 1511q-41 0 -71.5 32t-30.5 73t30.5 71.5t71.5 30.5t71.5 -30.5t30.5 -71.5t-30.5 -73t-71.5 -32zM465 1511q-41 0 -72 32t-31 73t31 71.5t72 30.5t71.5 -30.5t30.5 -71.5t-30.5 -73t-71.5 -32zM61 0v43q68 12 95.5 31.5t27.5 72.5v977q0 53 -27.5 73t-95.5 32v43h435 v-43q-70 -12 -97.5 -31.5t-27.5 -73.5v-977q0 -53 27.5 -72.5t97.5 -31.5v-43h-435z" glyph-name="afii10056" horiz-adv-x="557" unicode="Ї"/><glyph d="M236 -20q-131 0 -204 55t-73 135q0 47 25.5 76.5t70.5 29.5q88 0 88 -110q0 -51 28 -92t81 -41q98 0 98 145v946q0 53 -30.5 73t-112.5 32v43h455v-43q-70 -12 -97.5 -31.5t-27.5 -73.5v-841q0 -303 -301 -303z" glyph-name="afii10057" horiz-adv-x="722" unicode="Ј"/><glyph d="M475 1589q-51 31 -62.5 71t13.5 60q55 59 127 -16l203 -215q31 -29 18 -51q-14 -20 -59 6zM1307 1229q-70 -12 -97.5 -31.5t-27.5 -73.5v-977q0 -53 27.5 -72.5t97.5 -31.5v-43h-435v43q68 12 95.5 31.5t27.5 72.5v816l-624 -730v-86q0 -53 27.5 -72.5t97.5 -31.5v-43 h-435v43q68 12 95.5 31.5t27.5 72.5v977q0 53 -27.5 73t-95.5 32v43h435v-43q-70 -12 -97.5 -31.5t-27.5 -73.5v-805l624 734v71q0 53 -27.5 73t-95.5 32v43h435v-43z" glyph-name="uni040D" horiz-adv-x="1368" unicode="Ѝ"/><glyph d="M696 1497q-125 0 -196.5 69.5t-71.5 174.5q0 23 16 22h23q16 0 20 -16q10 -53 66.5 -93t142.5 -40t142.5 40t68.5 93q4 16 21 16h22q16 0 17 -22q0 -104 -73 -174t-198 -70zM926 1272h366v-41q-66 -8 -99.5 -39t-66.5 -96l-381 -760q-104 -207 -184 -287t-192 -80 q-86 0 -141.5 39t-55.5 103q0 47 27.5 74.5t76.5 27.5q37 0 57.5 -23.5t26 -52t20.5 -52.5t46 -24q94 0 205 209l-414 774q-57 109 -87 142t-99 45v41h442v-41q-139 -10 -67 -144l325 -616l311 625q29 61 -3.5 96t-112.5 39v41z" glyph-name="afii10062" horiz-adv-x="1323" unicode="Ў"/><glyph d="M41 0v43q72 14 110.5 46t71.5 104l395 923q41 94 41 156l117 12l451 -1040q49 -115 82.5 -153t109.5 -48v-43h-461v43q90 14 106.5 46t-13.5 91l-60 133q-35 74 -119 74h-397q-90 0 -117 -61l-59 -136q-51 -125 131 -147v-43h-389zM463 451h418q20 0 31.5 14t0.5 37 l-221 514q-20 49 -41 -2l-217 -508q-10 -27 -2 -41t31 -14z" glyph-name="afii10017" horiz-adv-x="1460" unicode="А"/><glyph d="M616 788q250 0 387.5 -106.5t137.5 -294.5q0 -186 -136.5 -286.5t-388.5 -100.5h-555v43q68 12 95.5 31.5t27.5 72.5v977q0 53 -26.5 73t-96.5 34v41h908l63 -230h-47q-53 109 -87 142t-103 33h-299q-66 0 -95.5 -19.5t-29.5 -73.5v-227q0 -57 25.5 -83t86.5 -26h133z M616 63q326 0 326 328q0 332 -326 332h-133q-61 0 -86.5 -25.5t-25.5 -83.5v-464q0 -14 4 -35q6 -29 31 -43q16 -8 45 -9h165z" glyph-name="afii10018" horiz-adv-x="1222" unicode="Б"/><glyph d="M61 0v43q68 12 95.5 31.5t27.5 72.5v979q0 51 -27.5 71t-95.5 32v43h594q219 0 339 -75t120 -218q0 -227 -297 -297q180 -29 275.5 -113t95.5 -221q0 -154 -117 -251t-305 -97q-27 0 -177.5 7t-293 7t-234.5 -14zM498 717h151q276 0 277 254q0 246 -273 246h-155 q-66 0 -96.5 -18.5t-30.5 -70.5v-323q0 -51 29.5 -69.5t97.5 -18.5zM444 61h256q299 0 299 281q0 162 -111.5 239.5t-383.5 77.5q-70 0 -101.5 -18t-31.5 -70v-419q-1 -91 73 -91z" glyph-name="afii10019" horiz-adv-x="1269" unicode="В"/><glyph d="M61 0v43q68 12 95.5 31.5t27.5 72.5v977q0 53 -26.5 73t-96.5 34v41h908l63 -230h-47q-53 109 -87 142t-103 33h-299q-66 0 -95.5 -19.5t-29.5 -73.5v-977q0 -53 30.5 -72.5t114.5 -31.5v-43h-455z" glyph-name="afii10020" horiz-adv-x="1083" unicode="Г"/><glyph d="M51 -236v281q0 20 21 23q170 25 234.5 297t64.5 757q0 59 -35 82t-127 27v41h1134v-41q-82 -4 -121.5 -27.5t-39.5 -81.5v-975q0 -47 32.5 -63t116.5 -16q25 0 21 -21l-49 -283h-43q0 70 -8.5 107t-27 66.5t-66.5 41t-112.5 16.5t-181.5 5h-336q-264 0 -349 -48t-85 -188 h-43zM199 68h678q61 0 89.5 17t28.5 65v972q0 55 -28.5 75t-89.5 20h-322q-61 0 -90 -19.5t-29 -75.5q1 -950 -237 -1054z" glyph-name="afii10021" horiz-adv-x="1413" unicode="Д"/><glyph d="M61 0v43q68 12 95.5 31.5t27.5 72.5v977q0 53 -27.5 73t-95.5 32v43h930q29 0 31 -25q12 -106 41 -223h-39q-39 96 -100.5 143t-163.5 47h-262q-66 0 -96.5 -20t-30.5 -76v-350q0 -55 29.5 -73.5t97.5 -18.5h202q88 0 121 33.5t47 113.5h33v-354h-33q-14 78 -47 113.5 t-121 35.5h-202q-66 0 -96.5 -19t-30.5 -73v-370q0 -57 40 -78t152 -19l236 2q102 2 148 30t77 81l49 76h41q-45 -82 -61 -219q-4 -29 -33 -29h-959z" glyph-name="afii10022" horiz-adv-x="1150" unicode="Е"/><glyph d="M1688 211q51 -66 100 -103.5t75.5 -47t69.5 -17.5v-43h-458v43q55 2 71.5 26.5t-24.5 84.5l-295 362q-76 94 -140 94h-8v-463q0 -53 28 -72.5t97 -31.5v-43h-434v43q68 12 95.5 31.5t27.5 72.5v463h-6q-63 0 -139 -94l-295 -362q-41 -59 -25 -84t72 -27v-43h-459v43 q43 8 69.5 17.5t76 47t100.5 103.5l344 438q18 25 25.5 37t7.5 33.5t-15 42.5l-297 371q-20 31 -42.5 26.5t-37 -22t-42 -36t-58.5 -18.5q-41 0 -70.5 29t-29.5 72q0 45 32.5 73.5t94.5 28.5q35 0 62.5 -8t51 -28.5t38 -35t39 -49.5t36.5 -49l287 -352q74 -94 174 -94h6v454 q0 53 -27.5 73t-95.5 32v43h434v-43q-70 -12 -97.5 -31.5t-27.5 -73.5v-454h8q100 0 175 94l284 352q12 14 37 49t39 49.5t37.5 35t51.5 28.5t63 8q63 0 96 -28.5t33 -73.5q0 -43 -30 -72t-71 -29q-31 0 -59.5 18.5t-41.5 36t-36 21.5t-43 -26l-297 -371q-35 -45 18 -113z " glyph-name="afii10024" horiz-adv-x="1984" unicode="Ж"/><glyph d="M539 -25q-197 0 -332 101.5t-135 259.5q0 127 100 127q45 0 59.5 -19.5t25.5 -86t32 -119.5q80 -207 264 -207q135 0 223 108.5t88 263.5q0 133 -69.5 203t-173.5 70q-59 0 -166 -39l-21 53q88 29 128 44.5t96.5 44t81 56t43 70.5t18.5 101q0 102 -55.5 167.5 t-174.5 65.5q-127 0 -229 -80t-152 -227q-8 -25 -32 -25q-45 0 -47 97.5t39 205.5q160 94 372 95q209 0 328 -86t119 -211q0 -186 -277 -273q119 14 240 -77t121 -259q0 -182 -147.5 -303t-366.5 -121z" glyph-name="afii10025" horiz-adv-x="1134" unicode="З"/><glyph d="M1307 1229q-70 -12 -97.5 -31.5t-27.5 -73.5v-977q0 -53 27.5 -72.5t97.5 -31.5v-43h-435v43q68 12 95.5 31.5t27.5 72.5v816l-624 -730v-86q0 -53 27.5 -72.5t97.5 -31.5v-43h-435v43q68 12 95.5 31.5t27.5 72.5v977q0 53 -27.5 73t-95.5 32v43h435v-43 q-70 -12 -97.5 -31.5t-27.5 -73.5v-805l624 734v71q0 53 -27.5 73t-95.5 32v43h435v-43z" glyph-name="afii10026" horiz-adv-x="1368" unicode="И"/><glyph d="M678 1497q-125 0 -196.5 69.5t-71.5 174.5q0 23 16 22h23q16 0 20 -16q10 -53 66.5 -93t142.5 -40t142.5 40t68.5 93q4 16 20 16h23q16 0 16 -22q0 -104 -72.5 -174t-197.5 -70zM1307 1229q-70 -12 -97.5 -31.5t-27.5 -73.5v-977q0 -53 27.5 -72.5t97.5 -31.5v-43h-435 v43q68 12 95.5 31.5t27.5 72.5v816l-624 -730v-86q0 -53 27.5 -72.5t97.5 -31.5v-43h-435v43q68 12 95.5 31.5t27.5 72.5v977q0 53 -27.5 73t-95.5 32v43h435v-43q-70 -12 -97.5 -31.5t-27.5 -73.5v-805l624 734v71q0 53 -27.5 73t-95.5 32v43h435v-43z" glyph-name="afii10027" horiz-adv-x="1368" unicode="Й"/><glyph d="M979 211q51 -66 100 -103.5t76 -47t70 -17.5v-43h-459v43q55 2 71.5 26.5t-24.5 84.5l-295 362q-76 94 -139 94h-8v-463q0 -53 27.5 -72.5t97.5 -31.5v-43h-435v43q68 12 95.5 31.5t27.5 72.5v977q0 53 -27.5 73t-95.5 32v43h435v-43q-70 -12 -97.5 -31.5t-27.5 -73.5 v-454h8q100 0 174 94l285 352q12 14 36.5 49t39 49.5t38 35t51 28.5t62.5 8q63 0 96 -28.5t33 -73.5q0 -43 -29.5 -72t-70.5 -29q-31 0 -59.5 18.5t-42 36t-36 21.5t-43.5 -26l-297 -371q-35 -45 19 -113z" glyph-name="afii10028" horiz-adv-x="1275" unicode="К"/><glyph d="M215 -23q-80 0 -132 36t-52 102q0 45 26.5 73.5t73.5 28.5q43 0 56.5 -26.5t9.5 -58.5t7 -58.5t50 -26.5q150 0 149 359v718q0 53 -34.5 73t-122.5 34v41h1138v-41q-70 -14 -96 -33.5t-26 -73.5v-977q0 -53 27.5 -72.5t94.5 -31.5v-43h-432v43q68 12 95.5 31.5t27.5 72.5 v977q0 53 -26.5 67.5t-96.5 14.5h-364q-39 0 -59.5 -4t-36 -22.5t-15.5 -55.5v-673v-19q0 -57 -1 -91t-7 -96.5t-23.5 -101.5t-45 -81t-75 -63.5t-110.5 -21.5z" glyph-name="afii10029" horiz-adv-x="1445" unicode="Л"/><glyph d="M61 0v43q70 12 98.5 31.5t28.5 72.5v977q0 53 -28.5 73t-98.5 32v43h320l453 -934l432 934h311v-43q-68 -12 -95.5 -31.5t-27.5 -73.5v-977q0 -53 27.5 -72.5t95.5 -31.5v-43h-432v43q68 12 95.5 31.5t27.5 72.5v973l-461 -999h-62l-489 1003v-977q0 -53 28.5 -72.5 t96.5 -31.5v-43h-320z" glyph-name="afii10030" horiz-adv-x="1638" unicode="М"/><glyph d="M1343 1229q-68 -12 -95 -31.5t-27 -73.5v-977q0 -53 27.5 -72.5t94.5 -31.5v-43h-432v43q68 12 95.5 31.5t27.5 72.5v388q0 70 -69 69h-523q-72 0 -71 -69v-388q0 -53 27.5 -72.5t97.5 -31.5v-43h-435v43q68 12 95.5 31.5t27.5 72.5v977q0 53 -27.5 73t-95.5 32v43h435 v-43q-70 -12 -97.5 -31.5t-27.5 -73.5v-393q0 -72 73 -72h519q72 0 71 72v393q0 53 -27.5 73t-95.5 32v43h432v-43z" glyph-name="afii10031" horiz-adv-x="1404" unicode="Н"/><glyph d="M705 -20q-276 0 -460 184t-184 467q0 287 192.5 480.5t477.5 193.5q276 0 459.5 -184.5t183.5 -465.5q0 -289 -192 -482t-477 -193zM758 47q168 0 287.5 131t119.5 404q0 287 -141 471t-346 184q-168 0 -288 -130t-120 -400q0 -289 141.5 -474.5t346.5 -185.5z" glyph-name="afii10032" horiz-adv-x="1435" unicode="О"/><glyph d="M1311 1229q-68 -12 -95.5 -31.5t-27.5 -73.5v-977q0 -53 27.5 -72.5t95.5 -31.5v-43h-432v43q68 12 95 31.5t27 72.5v977q0 55 -34 78q-16 6 -37 6h-488q-14 0 -34 -4q-37 -25 -37 -80v-977q0 -53 27.5 -72.5t97.5 -31.5v-43h-435v43q68 12 95.5 31.5t27.5 72.5v977 q0 53 -27.5 73t-95.5 32v43h1250v-43z" glyph-name="afii10033" horiz-adv-x="1372" unicode="П"/><glyph d="M61 0v43q68 12 95.5 31.5t27.5 72.5v977q0 53 -27.5 73t-95.5 32v43h555q252 0 388.5 -100.5t136.5 -287t-137.5 -292t-387.5 -105.5h-133q-61 0 -86.5 -26.5t-25.5 -83.5v-230q0 -53 30.5 -72.5t114.5 -31.5v-43h-455zM483 545h133q326 0 326 336q0 334 -326 333h-145 q-53 0 -76.5 -19t-23.5 -73v-465q0 -59 25.5 -85.5t86.5 -26.5z" glyph-name="afii10034" horiz-adv-x="1191" unicode="Р"/><glyph d="M723 -20q-270 0 -466 180t-196 481q0 303 200 483.5t478 180.5q215 0 349.5 -102.5t134.5 -223.5q0 -55 -32 -91t-85 -36q-47 0 -78 33t-35 94q-8 102 -88 181t-233 79q-190 0 -307 -134t-117 -366q0 -281 171 -457t421 -176q209 0 368 179l29 -25q-55 -100 -187 -190 t-327 -90z" glyph-name="afii10035" horiz-adv-x="1308" unicode="С"/><glyph d="M305 0v43q129 10 169 29.5t40 74.5v936q0 76 -28.5 99.5t-139.5 23.5q-106 0 -155.5 -40t-92.5 -160h-47l33 254q2 16 22 16q66 -4 136 -4h729q74 0 135 4q23 0 24 -16l31 -254h-47q-43 121 -92 160.5t-156 39.5q-111 0 -138.5 -23.5t-27.5 -99.5v-936q0 -55 40 -74.5 t167 -29.5v-43h-602z" glyph-name="afii10036" horiz-adv-x="1212" unicode="Т"/><glyph d="M926 1272h366v-41q-66 -8 -99.5 -39t-66.5 -96l-381 -760q-104 -207 -184 -287t-192 -80q-86 0 -141.5 39t-55.5 103q0 47 27.5 74.5t76.5 27.5q37 0 57.5 -23.5t26 -52t20.5 -52.5t46 -24q94 0 205 209l-414 774q-57 109 -87 142t-99 45v41h442v-41q-139 -10 -67 -144 l325 -616l311 625q29 61 -3.5 96t-112.5 39v41z" glyph-name="afii10037" horiz-adv-x="1323" unicode="У"/><glyph d="M541 0v43q70 12 97.5 32.5t27.5 76.5q0 59 -25 85.5t-88 26.5h-45q-211 0 -329 97.5t-118 275.5t118 275.5t329 97.5h45q63 0 88 25.5t25 84.5q0 55 -28 76t-97 35v41h434v-41q-70 -14 -96.5 -34.5t-26.5 -76.5q0 -59 24.5 -84.5t88.5 -25.5h43q211 0 328.5 -97.5 t117.5 -275.5t-117.5 -275.5t-328.5 -97.5h-43q-63 0 -88 -26.5t-25 -85.5q0 -55 26.5 -76t96.5 -33v-43h-434zM508 328h45q61 0 87 25.5t26 82.5v402q0 57 -26 82.5t-87 25.5h-45q-244 0 -244 -309t244 -309zM965 328h43q244 0 243.5 309t-243.5 309h-43q-61 0 -87 -25.5 t-26 -82.5v-402q0 -57 26 -82.5t87 -25.5z" glyph-name="afii10038" horiz-adv-x="1515" unicode="Ф"/><glyph d="M41 0v43q76 6 171 89t296 339l102 131l-299 428q-74 109 -125 150t-123 49v43h453v-43q-68 -8 -80 -30.5t31 -88.5l262 -375q289 365 264 451q-8 39 -71 43v43h395v-43q-74 -6 -166 -88t-295 -340l-92 -117l307 -440q76 -109 127 -151t123 -50v-43h-453v43q68 8 79 30.5 t-29 88.5l-271 389q-295 -371 -282 -461q6 -41 73 -47v-43h-397z" glyph-name="afii10039" horiz-adv-x="1361" unicode="Х"/><glyph d="M1380 68q25 0 21 -21l-49 -283h-43q0 86 -9.5 127t-53.5 69t-113.5 34t-210.5 6h-861v43q68 12 95.5 31.5t27.5 72.5v977q0 53 -27.5 73t-95.5 32v43h435v-43q-70 -12 -97.5 -31.5t-27.5 -73.5v-977q0 -49 28.5 -64t94.5 -15h432q61 0 89.5 15t28.5 64v977q0 53 -27.5 73 t-96.5 32v43h434v-43q-68 -12 -95.5 -31.5t-27.5 -73.5v-977q0 -47 32.5 -63t116.5 -16z" glyph-name="afii10040" horiz-adv-x="1452" unicode="Ц"/><glyph d="M872 0v43q68 12 95.5 31.5t27.5 72.5v250q0 76 -34 76q-12 0 -25 -14q-39 -47 -142.5 -89t-230.5 -42q-154 0 -263.5 89t-109.5 277v430q0 51 -29.5 72t-99.5 35v41h455v-41q-78 -14 -108.5 -33.5t-30.5 -73.5v-389q0 -129 79 -209t242 -80q133 0 215 82t82 199v397 q0 53 -26.5 73t-96.5 34v41h435v-41q-70 -14 -97.5 -33.5t-27.5 -73.5v-977q0 -53 27.5 -72.5t97.5 -31.5v-43h-435z" glyph-name="afii10041" horiz-adv-x="1368" unicode="Ч"/><glyph d="M1716 1229q-70 -12 -97.5 -31.5t-27.5 -73.5v-977q0 -53 28 -72.5t97 -31.5v-43h-1655v43q68 12 95.5 31.5t27.5 72.5v977q0 53 -27.5 73t-95.5 32v43h435v-43q-70 -12 -97.5 -31.5t-27.5 -73.5v-977q0 -47 32.5 -63t120.5 -16h154q61 0 89 15t28 64v977q0 53 -28 73 t-95 32v43h434v-43q-70 -12 -97.5 -31.5t-27.5 -73.5v-977q0 -47 33 -63t121 -16h153q61 0 89 15t28 64v977q0 53 -27.5 73t-95.5 32v43h434v-43z" glyph-name="afii10042" horiz-adv-x="1777" unicode="Ш"/><glyph d="M1745 68q25 0 20 -21l-49 -283h-43q0 86 -9 127t-53 69t-114 34t-211 6h-1223v43q70 12 97.5 31.5t27.5 72.5v977q0 53 -27.5 73t-97.5 32v43h435v-43q-68 -12 -95.5 -31.5t-27.5 -73.5v-977q0 -47 32.5 -63t120.5 -16h152q61 0 90 15t29 64v977q0 53 -28 73t-97 32v43 h434v-43q-68 -12 -95.5 -31.5t-27.5 -73.5v-977q0 -47 33 -63t121 -16h151q61 0 90 15t29 64v977q0 53 -27.5 73t-97.5 32v43h434v-43q-68 -12 -95.5 -31.5t-27.5 -73.5v-977q0 -47 33 -63t117 -16z" glyph-name="afii10043" horiz-adv-x="1816" unicode="Щ"/><glyph d="M256 0v43q68 12 95.5 31.5t27.5 72.5v977q0 92 -107 93q-72 0 -106.5 -34t-87.5 -141h-47l63 230h594v-41q-70 -14 -96.5 -33.5t-26.5 -73.5v-227q0 -57 25.5 -83t87.5 -26h133q250 0 387 -106.5t137 -294.5q0 -186 -136 -286.5t-388 -100.5h-555zM645 63h166 q324 0 324 328q0 332 -324 332h-133q-61 0 -87 -25.5t-26 -83.5v-464q0 -49 19.5 -68t60.5 -19z" glyph-name="afii10044" horiz-adv-x="1386" unicode="Ъ"/><glyph d="M616 788q250 0 387.5 -106.5t137.5 -294.5q0 -186 -136.5 -286.5t-388.5 -100.5h-555v43q68 12 95.5 31.5t27.5 72.5v977q0 53 -27.5 73t-95.5 32v43h435v-43q-70 -12 -97.5 -31.5t-27.5 -73.5v-227q0 -57 25.5 -83t86.5 -26h133zM1653 1229q-68 -12 -95.5 -31.5 t-27.5 -73.5v-977q0 -53 27.5 -72.5t95.5 -31.5v-43h-434v43q70 12 97 31.5t27 72.5v977q0 53 -27.5 73t-96.5 32v43h434v-43zM616 63q326 0 326 328q0 332 -326 332h-133q-61 0 -86.5 -25.5t-25.5 -83.5v-464q0 -25 6 -44q2 -6 12 -22q18 -20 62 -21h165z" glyph-name="afii10045" horiz-adv-x="1714" unicode="Ы"/><glyph d="M616 788q250 0 387.5 -106.5t137.5 -294.5q0 -186 -136.5 -286.5t-388.5 -100.5h-555v43q68 12 95.5 31.5t27.5 72.5v977q0 53 -27.5 73t-95.5 32v43h435v-43q-70 -12 -97.5 -31.5t-27.5 -73.5v-227q0 -57 25.5 -83t86.5 -26h133zM616 63q326 0 326 328q0 332 -326 332 h-133q-61 0 -86.5 -25.5t-25.5 -83.5v-464q0 -25 6 -44q2 -6 12 -22q18 -20 62 -21h165z" glyph-name="afii10046" horiz-adv-x="1185" unicode="Ь"/><glyph d="M571 1305q178 0 331 -77t249 -230.5t96 -356.5q0 -301 -195.5 -481t-463.5 -180q-197 0 -329 90t-187 190l28 25q160 -178 369 -179q190 0 338.5 104.5t212.5 283.5l-4 -5q33 106 -43 107h-445v63h457q72 0 72 121l4 -4q-10 217 -125 340t-297 123q-156 0 -235.5 -79 t-88.5 -181q-10 -127 -112 -127q-53 0 -85 36t-32 91q0 121 135 223.5t350 102.5z" glyph-name="afii10047" horiz-adv-x="1308" unicode="Э"/><glyph d="M1292 1305q276 0 459.5 -184.5t183.5 -465.5q0 -289 -192.5 -482t-476.5 -193q-268 0 -451.5 176t-191.5 448h-252v-457q0 -53 27.5 -72.5t97.5 -31.5v-43h-435v43q68 12 95.5 31.5t27.5 72.5v977q0 53 -27.5 73t-95.5 32v43h435v-43q-70 -12 -97.5 -31.5t-27.5 -73.5 v-456h252q14 274 204.5 455.5t464.5 181.5zM1319 47q168 0 287.5 131t119.5 404q0 287 -141 471t-346 184q-168 0 -288 -130t-120 -400q0 -289 141.5 -474.5t346.5 -185.5z" glyph-name="afii10048" horiz-adv-x="1996" unicode="Ю"/><glyph d="M1198 0h-453v43q82 12 113 31.5t31 72.5v320q0 61 -31 86t-119 25q-129 0 -200.5 -55.5t-118.5 -196.5q-63 -199 -121.5 -262.5t-202.5 -63.5h-53v43q57 0 94 64.5t92 240.5q59 199 220 246q6 2 9 5t0 7t-9 6q-289 74 -289 316q0 164 123 254t358 90h557v-43 q-68 -12 -95.5 -31.5t-27.5 -73.5v-977q0 -53 27.5 -72.5t95.5 -31.5v-43zM776 639q61 0 87 25.5t26 85.5v372q0 53 -30 72.5t-103 19.5h-121q-287 0 -287 -290q0 -285 281 -285h147z" glyph-name="afii10049" horiz-adv-x="1259" unicode="Я"/><glyph d="M328 -12q-113 0 -190 56t-77 169q0 129 129 212t453 120q49 4 49 55v49q0 113 -55 176.5t-168 63.5q-172 0 -172 -150q0 -106 -90 -106q-41 0 -62.5 25.5t-21.5 68.5q0 109 117.5 162t281.5 53q180 0 257 -81t77 -255v-469q0 -88 105 -69v-25q-41 -55 -138 -55 q-127 0 -133 149q2 14 -8 14.5t-20 -14.5q-57 -70 -147.5 -109.5t-186.5 -39.5zM424 82q111 0 189.5 70.5t78.5 175.5v94q0 39 -16.5 57.5t-65.5 12.5q-373 -45 -372 -242q0 -72 47 -120t139 -48z" glyph-name="afii10065" horiz-adv-x="999" unicode="а"/><glyph d="M524 -12q-78 0 -151.5 29.5t-147 98t-119 204t-45.5 323.5q-2 317 123 473t387 156h119q78 0 108.5 7t53.5 32h39q0 -125 -67.5 -162t-243.5 -37h-109q-150 0 -235.5 -65.5t-85.5 -178.5q0 -100 71 -100q23 0 58.5 27.5t72.5 59.5t103.5 59.5t142.5 27.5 q170 0 276.5 -123t106.5 -338q0 -233 -128 -363t-329 -130zM541 43q121 0 196.5 98.5t75.5 259.5q0 180 -91 302t-226 122q-115 0 -182.5 -94t-67.5 -256q0 -182 84 -307t211 -125z" glyph-name="afii10066" horiz-adv-x="1042" unicode="б"/><glyph d="M61 0v39q66 10 88.5 29.5t22.5 74.5v648q0 49 -25.5 68.5t-85.5 25.5v39h435q164 0 261 -54.5t97 -162.5q0 -156 -213 -203q119 -20 189.5 -85t70.5 -157q0 -262 -387 -262q-100 0 -177 4t-83 4q-103 0 -193 -8zM387 530h115q88 0 136 43t48 121q0 80 -48 124t-136 44 h-115q-51 0 -51 -51v-229q0 -52 51 -52zM401 63h107q113 0 171 50.5t58 142.5q0 213 -319 213h-31q-51 0 -51 -51v-273q0 -43 14 -62.5t51 -19.5z" glyph-name="afii10067" horiz-adv-x="952" unicode="в"/><glyph d="M61 0v39q66 10 88.5 29.5t22.5 76.5v646q0 49 -25.5 68.5t-85.5 25.5v39h748l37 -215h-39q-35 90 -81 121.5t-161 31.5h-178q-51 0 -51 -53v-664q0 -57 22.5 -76.5t87.5 -29.5v-39h-385z" glyph-name="afii10068" horiz-adv-x="894" unicode="г"/><glyph d="M41 -225v266q0 20 20 22q289 41 289 742q0 74 -162 80v39h951v-39q-162 -6 -162 -78v-655q0 -51 33.5 -71t113.5 -20q27 0 23 -24l-49 -262h-39q0 156 -49 190.5t-260 34.5h-330q-217 0 -278.5 -42t-61.5 -183h-39zM199 61h495q59 0 89 19.5t30 71.5v649q0 33 -16.5 47 t-57.5 14h-264q-37 0 -50 -12t-13 -45q0 -285 -54.5 -485t-158.5 -259z" glyph-name="afii10069" horiz-adv-x="1183" unicode="д"/><glyph d="M532 -12q-199 0 -335 131t-136 348q0 219 136.5 347t339.5 128q154 0 244.5 -74.5t90.5 -191.5q0 -100 -86 -143.5t-305 -53.5l-182 -8q-63 -2 -51 -86q20 -131 124.5 -209t245.5 -78q166 0 256 117l33 -27q-39 -74 -135.5 -137t-239.5 -63zM303 522l150 2 q145 4 198.5 36t53.5 114q0 92 -51.5 152.5t-153.5 60.5q-115 0 -181.5 -73t-80.5 -200q-6 -59 9 -76.5t56 -15.5z" glyph-name="afii10070" horiz-adv-x="978" unicode="е"/><glyph d="M1337 180q121 -127 193 -141v-39h-363v39q86 18 35 74l-250 270q-25 29 -63 29h-21v-267q0 -57 22.5 -76.5t88.5 -29.5v-39h-385v39q66 10 88.5 29.5t22.5 76.5v267h-21q-41 0 -66 -29l-249 -270q-51 -55 34 -74v-39h-362v39q72 14 192 141l281 299q33 37 0 78l-219 252 q-20 25 -35.5 26t-26 -12.5t-32 -27t-47.5 -13.5q-33 0 -57.5 19.5t-24.5 56.5q0 35 26.5 56.5t73.5 21.5q51 0 89 -27.5t85 -83.5l225 -264q51 -61 111 -61h23v278q0 57 -23 76.5t-88 30.5v39h385v-39q-66 -10 -88.5 -29.5t-22.5 -77.5v-278h21q59 0 110 61l226 264 q47 55 85 83t91 28q47 0 73.5 -21.5t26.5 -56.5t-25.5 -55.5t-58.5 -20.5q-27 0 -48 13.5t-31.5 27t-26 12.5t-35.5 -26l-217 -252q-37 -41 0 -78z" glyph-name="afii10072" horiz-adv-x="1581" unicode="ж"/><glyph d="M422 -16q-166 0 -263.5 81.5t-97.5 200.5q0 39 19.5 60.5t54.5 21.5q37 0 50.5 -16.5t22.5 -66.5t21 -81q23 -61 77 -104t136 -43q100 0 160 69.5t60 172.5q0 88 -46.5 137t-117.5 49q-35 0 -115 -33l-18 45q131 49 183 107.5t52 158.5q0 145 -147 146q-188 0 -244 -207 q-2 -6 -5 -17.5t-4 -15.5t-5.5 -10t-7.5 -8t-8 -4t-13 -2q-49 0 -49 80.5t28 156.5q154 80 312 80q143 0 219 -61.5t76 -153.5q0 -66 -41 -120t-105 -81q96 -6 162 -63t66 -158q0 -139 -121 -230t-291 -91z" glyph-name="afii10073" horiz-adv-x="884" unicode="з"/><glyph d="M1102 885q-68 -10 -90.5 -29.5t-22.5 -77.5v-633q0 -57 22.5 -76.5t90.5 -29.5v-39h-387v39q66 10 88 29.5t22 76.5v535l-489 -502v-33q0 -57 22.5 -76.5t87.5 -29.5v-39h-385v39q66 10 88.5 29.5t22.5 76.5v633q0 57 -22.5 76.5t-88.5 30.5v39h385v-39 q-66 -10 -88 -29.5t-22 -77.5v-534l489 501v33q0 57 -22.5 76.5t-87.5 30.5v39h387v-39z" glyph-name="afii10074" horiz-adv-x="1163" unicode="и"/><glyph d="M582 1149q-125 0 -197 69.5t-72 174.5q0 23 17 22h22q16 0 21 -16q10 -53 66.5 -93t142.5 -40t142 40t69 93q4 16 20 16h23q16 0 16 -22q0 -104 -72.5 -174t-197.5 -70zM1102 885q-68 -10 -90.5 -29.5t-22.5 -77.5v-633q0 -57 22.5 -76.5t90.5 -29.5v-39h-387v39 q66 10 88 29.5t22 76.5v535l-489 -502v-33q0 -57 22.5 -76.5t87.5 -29.5v-39h-385v39q66 10 88.5 29.5t22.5 76.5v633q0 57 -22.5 76.5t-88.5 30.5v39h385v-39q-66 -10 -88 -29.5t-22 -77.5v-534l489 501v33q0 57 -22.5 76.5t-87.5 30.5v39h387v-39z" glyph-name="afii10075" horiz-adv-x="1163" unicode="й"/><glyph d="M807 180q117 -127 192 -141v-39h-362v39q84 18 33 74l-250 270q-25 29 -64 29h-20v-267q0 -57 22.5 -76.5t87.5 -29.5v-39h-385v39q66 10 88.5 29.5t22.5 76.5v633q0 57 -22.5 76.5t-88.5 30.5v39h385v-39q-66 -10 -88 -29.5t-22 -77.5v-278h22q59 0 111 61l225 264 q47 57 84 84t90 27q47 0 74 -21.5t27 -56.5t-25.5 -55.5t-56.5 -20.5q-33 0 -60.5 22.5t-38 29t-45.5 -24.5l-217 -252q-33 -41 0 -78z" glyph-name="afii10076" horiz-adv-x="1030" unicode="к"/><glyph d="M219 -23q-80 0 -129 34t-49 98q0 47 27.5 73.5t68.5 26.5t56.5 -26.5t12.5 -57.5t10 -57.5t52 -26.5q29 0 50.5 14.5t35 45t21.5 63.5t12 84t5 90t1 98v342q0 55 -35.5 75.5t-130.5 31.5v39h916v-39q-68 -10 -90.5 -29.5t-22.5 -77.5v-633q0 -57 22.5 -76.5t90.5 -29.5 v-39h-387v39q66 10 88 29.5t22 76.5v633q0 55 -21.5 69.5t-88.5 14.5h-193q-68 0 -89 -14t-21 -70v-325q0 -96 -3.5 -153.5t-15.5 -126.5t-35.5 -106.5t-68.5 -63.5t-111 -26z" glyph-name="afii10077" horiz-adv-x="1204" unicode="л"/><glyph d="M1214 885q-66 -10 -88 -29.5t-22 -77.5v-633q0 -57 22.5 -76.5t87.5 -29.5v-39h-385v39q66 10 88.5 29.5t22.5 76.5v643l-332 -712h-43l-336 702v-633q0 -57 21.5 -76.5t87.5 -29.5v-39h-277v39q66 10 88.5 29.5t22.5 76.5v633q0 57 -22.5 76.5t-88.5 30.5v39h269 l309 -650l301 650h274v-39z" glyph-name="afii10078" horiz-adv-x="1275" unicode="м"/><glyph d="M1133 885q-68 -10 -90.5 -29.5t-22.5 -77.5v-633q0 -57 22.5 -76.5t90.5 -29.5v-39h-388v39q66 10 88.5 29.5t22.5 76.5v283h-520v-283q0 -57 22.5 -76.5t87.5 -29.5v-39h-385v39q66 10 88.5 29.5t22.5 76.5v633q0 57 -22.5 76.5t-88.5 30.5v39h385v-39 q-66 -10 -88 -29.5t-22 -77.5v-289h520v289q0 57 -22.5 76.5t-88.5 30.5v39h388v-39z" glyph-name="afii10079" horiz-adv-x="1193" unicode="н"/><glyph d="M530 -12q-195 0 -332 130t-137 345t138.5 347t337.5 132q195 0 331 -130t136 -343q0 -215 -138.5 -348t-335.5 -133zM582 45q111 0 178 89t67 259q0 203 -97 347.5t-247 144.5q-111 0 -177 -88t-66 -258q0 -205 96 -349.5t246 -144.5z" glyph-name="afii10080" horiz-adv-x="1064" unicode="о"/><glyph d="M61 0v39q66 10 88.5 29.5t22.5 76.5v633q0 57 -22.5 76.5t-88.5 30.5v39h1082v-39q-68 -10 -90.5 -29.5t-22.5 -77.5v-633q0 -57 22.5 -76.5t90.5 -29.5v-39h-387v39q66 10 88 29.5t22 76.5v633q0 55 -21.5 69.5t-88.5 14.5h-310q-68 0 -89 -14t-21 -70v-633 q0 -57 22.5 -76.5t87.5 -29.5v-39h-385z" glyph-name="afii10081" horiz-adv-x="1204" unicode="п"/><glyph d="M43 -389v43q74 8 102.5 30.5t28.5 77.5v967q0 74 -25.5 100.5t-107.5 18.5v39l225 51q72 16 72 -64v-28q0 -18 11 -23.5t28 11.5q35 39 114.5 73.5t172.5 34.5q172 0 287.5 -128t115.5 -337q0 -225 -131 -357t-311 -132q-55 0 -107.5 13t-82 27.5t-54.5 22.5t-34 -1 t-9 -44v-244q0 -55 30.5 -77.5t110.5 -30.5v-43h-436zM635 41q125 0 197.5 97.5t72.5 258.5q0 184 -93 308t-237 124q-94 0 -165.5 -57t-71.5 -192v-213q0 -160 91 -243t206 -83z" glyph-name="afii10082" horiz-adv-x="1128" unicode="р"/><glyph d="M545 -12q-203 0 -343.5 129t-140.5 346q0 221 145.5 350t352.5 129q158 0 255 -74.5t97 -165.5q0 -43 -25.5 -70.5t-66.5 -27.5q-82 0 -90 90q-8 80 -59.5 136.5t-155.5 56.5q-131 0 -208 -94.5t-77 -260.5q0 -199 118 -315.5t294 -116.5q166 0 250 131l35 -28 q-33 -80 -133.5 -147.5t-247.5 -67.5z" glyph-name="afii10083" horiz-adv-x="997" unicode="с"/><glyph d="M264 0v39q74 10 97.5 29.5t23.5 76.5v637q0 51 -26.5 65.5t-98.5 14.5q-82 0 -114.5 -29.5t-65.5 -121.5h-39l25 213h802l23 -213h-39q-33 94 -64.5 122.5t-111.5 28.5q-74 0 -100.5 -14t-26.5 -66v-637q0 -57 23.5 -76.5t97.5 -29.5v-39h-406z" glyph-name="afii10084" horiz-adv-x="931" unicode="т"/><glyph d="M244 -406q-76 0 -120 35t-44 90q0 45 29.5 73t74.5 28q39 0 57.5 -23.5t20.5 -52.5t13.5 -52.5t39.5 -23.5q63 0 123 152q47 121 -8 268l-246 604q-39 98 -68.5 131t-95.5 58v43h408v-43q-84 -25 -95 -56.5t29 -132.5l183 -448q14 -31 24.5 -40t21.5 1t25 41l91 233 q51 129 73.5 204t13 115t-31 54t-74.5 29v43h363v-43q-88 -25 -126 -59t-75 -130l-344 -850q-53 -129 -105.5 -188.5t-156.5 -59.5z" glyph-name="afii10085" horiz-adv-x="1071" unicode="у"/><glyph d="M659 -389v41q74 8 103 31.5t29 78.5v388q-131 -162 -324 -162q-172 0 -289 126t-117 332q0 229 131.5 362.5t315.5 133.5q51 0 103.5 -11t81 -22.5t53 -17.5t35 5t10.5 44v195q0 74 -26 100.5t-108 17.5v39l226 49q72 16 71 -57v-446q0 -16 11.5 -20.5t27.5 11.5 q33 41 113 77t174 36q172 0 287.5 -127t115.5 -334q0 -229 -130 -361t-312 -132q-55 0 -108.5 13t-83 27.5t-53 22.5t-33 -1t-9.5 -44v-244q0 -55 29 -78.5t104 -31.5v-41h-428zM559 100q90 0 161 50.5t71 160.5v291q0 137 -92.5 211t-209.5 74q-121 0 -190.5 -97.5 t-69.5 -259.5q0 -186 91.5 -308t238.5 -122zM1253 43q123 0 193 96.5t70 257.5q0 184 -90.5 308t-229.5 124q-96 0 -169 -53t-73 -174v-258q0 -145 92 -223t207 -78z" glyph-name="afii10086" horiz-adv-x="1744" unicode="ф"/><glyph d="M31 0v43q94 25 148 63.5t140 149.5l130 170l-193 270q-63 88 -108.5 127t-108.5 58v43h410v-43q-55 -14 -69.5 -37t-1.5 -53.5t60 -94.5l109 -149q94 125 126 192.5t16.5 96t-75.5 45.5v43h371v-43q-94 -25 -147.5 -64t-139.5 -149l-123 -162l197 -277q61 -88 106.5 -127 t110.5 -59v-43h-409v43q55 14 69.5 36.5t1 54.5t-60.5 95l-113 154q-74 -96 -109.5 -156.5t-42 -98.5t12 -55.5t63.5 -29.5v-43h-370z" glyph-name="afii10087" horiz-adv-x="1019" unicode="х"/><glyph d="M1112 -225q0 158 -55.5 191.5t-300.5 33.5h-695v39q66 10 88.5 29.5t22.5 76.5v633q0 57 -22.5 76.5t-88.5 30.5v39h385v-39q-66 -10 -88 -29.5t-22 -77.5v-633q0 -53 21.5 -68.5t88.5 -15.5h310q43 0 62.5 3.5t33.5 18.5t14 46v649q0 57 -22.5 76.5t-87.5 30.5v39h387 v-39q-68 -10 -90.5 -29.5t-22.5 -77.5v-651q0 -33 14.5 -47t35 -16.5t73.5 -2.5h23q29 0 24 -24l-49 -262h-39z" glyph-name="afii10088" horiz-adv-x="1236" unicode="ц"/><glyph d="M1075 879q-66 -10 -88 -30t-22 -75v-624q0 -55 22.5 -75t87.5 -30v-45h-389v45q66 10 88.5 29.5t22.5 75.5v217q0 33 -13 30q-6 0 -63 -51q-131 -113 -277 -113q-127 0 -209.5 85t-82.5 286v170q0 55 -23 74.5t-88 30.5v45h391v-45q-66 -10 -88 -30t-22 -75v-170 q0 -121 56 -199.5t157 -78.5q104 0 183 79.5t79 192.5v176q0 55 -22.5 74.5t-88.5 30.5v45h389v-45z" glyph-name="afii10089" horiz-adv-x="1136" unicode="ч"/><glyph d="M61 0v39q66 10 88.5 29.5t22.5 76.5v633q0 57 -22.5 76.5t-88.5 30.5v39h385v-39q-66 -10 -88 -29.5t-22 -77.5v-633q0 -53 21.5 -68.5t88.5 -15.5h119q68 0 89.5 15.5t21.5 68.5v633q0 57 -22.5 76.5t-88.5 30.5v39h385v-39q-66 -10 -88 -29.5t-22 -77.5v-633 q0 -53 21.5 -68.5t88.5 -15.5h119q68 0 89.5 15.5t21.5 68.5v633q0 57 -22.5 76.5t-88.5 30.5v39h385v-39q-66 -10 -88.5 -29.5t-22.5 -77.5v-633q0 -57 23 -76.5t88 -29.5v-39h-1393z" glyph-name="afii10090" horiz-adv-x="1515" unicode="ш"/><glyph d="M1489 61q27 0 24 -24l-49 -262h-39q0 158 -55 191.5t-301 33.5h-1008v39q66 10 88.5 29.5t22.5 76.5v633q0 57 -22.5 76.5t-88.5 30.5v39h385v-39q-66 -10 -88 -29.5t-22 -77.5v-633q0 -53 21.5 -68.5t88.5 -15.5h119q68 0 89.5 15.5t21.5 68.5v633q0 57 -22.5 76.5 t-88.5 30.5v39h385v-39q-66 -10 -88 -29.5t-22 -77.5v-633q0 -53 21.5 -68.5t88.5 -15.5h119q68 0 89.5 15.5t21.5 68.5v633q0 57 -22.5 76.5t-88.5 30.5v39h385v-39q-66 -10 -88.5 -29.5t-22.5 -77.5v-633q0 -43 13 -65q18 -19 133 -19z" glyph-name="afii10091" horiz-adv-x="1550" unicode="щ"/><glyph d="M625 655q199 0 318.5 -87t119.5 -242.5t-120 -240.5t-318 -85h-422v39q66 10 88 29.5t22 76.5v633v13q-2 39 -22.5 55t-69.5 16q-55 0 -90 -24.5t-61 -85.5h-39l26 172h531v-39q-66 -10 -88.5 -29.5t-22.5 -77.5v-82q0 -16 12.5 -28.5t28.5 -12.5h107zM623 59 q137 0 198.5 74t61.5 192.5t-60.5 193.5t-197.5 75h-107q-16 0 -28.5 -12.5t-12.5 -28.5v-408q0 -53 28 -69.5t118 -16.5z" glyph-name="afii10092" horiz-adv-x="1114" unicode="ъ"/><glyph d="M61 0v39q66 10 88.5 29.5t22.5 76.5v633q0 57 -22.5 76.5t-88.5 30.5v39h385v-39q-66 -10 -88 -29.5t-22 -77.5v-82q0 -16 12 -28.5t29 -12.5h106q199 0 319 -87t120 -242.5t-120 -240.5t-319 -85h-422zM981 0v39q66 10 88.5 29.5t22.5 76.5v633q0 57 -22.5 76.5 t-88.5 30.5v39h387v-39q-68 -10 -90.5 -29.5t-22.5 -77.5v-633q0 -57 22.5 -76.5t90.5 -29.5v-39h-387zM481 59q137 0 199.5 75t62.5 192q0 119 -61 193.5t-199 74.5h-106q-16 0 -28.5 -12.5t-12.5 -28.5v-408q0 -53 27.5 -69.5t117.5 -16.5z" glyph-name="afii10093" horiz-adv-x="1429" unicode="ы"/><glyph d="M61 0v39q66 10 88.5 29.5t22.5 76.5v633q0 57 -22.5 76.5t-88.5 30.5v39h385v-39q-66 -10 -88 -29.5t-22 -77.5v-82q0 -16 12 -28.5t29 -12.5h106q199 0 319 -87t120 -242.5t-120 -240.5t-319 -85h-422zM481 59q137 0 199.5 75t62.5 192q0 119 -61 193.5t-199 74.5h-106 q-16 0 -28.5 -12.5t-12.5 -28.5v-408q0 -53 27.5 -69.5t117.5 -16.5z" glyph-name="afii10094" horiz-adv-x="964" unicode="ь"/><glyph d="M440 942q205 0 350.5 -129t145.5 -350q0 -217 -140.5 -346t-342.5 -129q-147 0 -248 67.5t-133 147.5l34 28q84 -131 250 -131q154 0 266.5 91.5t137.5 250.5h-314v54h320q2 12 2 36q0 166 -77 260.5t-208 94.5q-104 0 -155.5 -56.5t-59.5 -136.5q-6 -90 -88 -90 q-43 0 -68.5 27.5t-25.5 70.5q0 90 97 165t257 75z" glyph-name="afii10095" horiz-adv-x="997" unicode="э"/><glyph d="M1004 942q195 0 332 -130t137 -343q0 -215 -138.5 -348t-337.5 -133q-188 0 -323 124t-144 328h-194v-295q0 -57 22.5 -76.5t87.5 -29.5v-39h-385v39q66 10 88.5 29.5t22.5 76.5v633q0 57 -22.5 76.5t-88.5 30.5v39h385v-39q-66 -10 -88 -29.5t-22 -77.5v-291h194 q8 205 144.5 330t329.5 125zM1051 45q111 0 177 89t66 259q0 203 -96 347.5t-246 144.5q-111 0 -178 -88t-67 -258q0 -205 97 -349.5t247 -144.5z" glyph-name="afii10096" horiz-adv-x="1533" unicode="ю"/><glyph d="M967 885q-66 -10 -88.5 -29.5t-22.5 -77.5v-633q0 -57 22.5 -76.5t88.5 -29.5v-39h-385v39q66 10 88 29.5t22 76.5v261h-157q-78 0 -111 -36t-59 -134q-31 -119 -95.5 -177.5t-197.5 -58.5h-41v39q111 20 157 205q16 76 55.5 121t127.5 57q-121 16 -189.5 81.5 t-68.5 158.5q0 117 88 189.5t243 72.5h523v-39zM498 467h194v311q0 55 -21.5 69.5t-88.5 14.5h-95q-199 0 -198 -200q0 -195 209 -195z" glyph-name="afii10097" horiz-adv-x="1028" unicode="я"/><glyph d="M588 1090q-14 -20 -60 6l-239 145q-51 31 -62.5 71t13.5 60q55 59 127 -16l202 -215q31 -28 19 -51zM532 -12q-199 0 -335 131t-136 348q0 219 136.5 347t339.5 128q154 0 244.5 -74.5t90.5 -191.5q0 -100 -86 -143.5t-305 -53.5l-182 -8q-63 -2 -51 -86 q20 -131 124.5 -209t245.5 -78q166 0 256 117l33 -27q-39 -74 -135.5 -137t-239.5 -63zM303 522l150 2q145 4 198.5 36t53.5 114q0 92 -51.5 152.5t-153.5 60.5q-115 0 -181.5 -73t-80.5 -200q-6 -59 9 -76.5t56 -15.5z" glyph-name="uni0450" horiz-adv-x="978" unicode="ѐ"/><glyph d="M305 1163q-41 0 -71.5 32t-30.5 73t30.5 71.5t71.5 30.5t72 -30.5t31 -71.5t-31 -73t-72 -32zM682 1163q-41 0 -71.5 32t-30.5 73t30.5 71.5t71.5 30.5t71.5 -30.5t30.5 -71.5t-30.5 -73t-71.5 -32zM532 -12q-199 0 -335 131t-136 348q0 219 136.5 347t339.5 128 q154 0 244.5 -74.5t90.5 -191.5q0 -100 -86 -143.5t-305 -53.5l-182 -8q-63 -2 -51 -86q20 -131 124.5 -209t245.5 -78q166 0 256 117l33 -27q-39 -74 -135.5 -137t-239.5 -63zM303 522l150 2q145 4 198.5 36t53.5 114q0 92 -51.5 152.5t-153.5 60.5q-115 0 -181.5 -73 t-80.5 -200q-6 -59 9 -76.5t56 -15.5z" glyph-name="afii10071" horiz-adv-x="978" unicode="ё"/><glyph d="M365 1090q-12 23 16 51l203 215q72 78 129 16q25 -20 13.5 -60t-62.5 -71l-240 -145q-47 -24 -59 -6zM61 0v39q66 10 88.5 29.5t22.5 76.5v646q0 49 -25.5 68.5t-85.5 25.5v39h748l37 -215h-39q-35 90 -81 121.5t-161 31.5h-178q-51 0 -51 -53v-664q0 -57 22.5 -76.5 t87.5 -29.5v-39h-385z" glyph-name="afii10100" horiz-adv-x="894" unicode="ѓ"/><glyph d="M891 231l35 -28q-33 -80 -133.5 -147.5t-247.5 -67.5q-203 0 -343.5 129t-140.5 346q0 221 145.5 350t352.5 129q158 0 255 -74.5t97 -165.5q0 -43 -25.5 -70.5t-66.5 -27.5q-82 0 -90 90q-8 80 -59.5 136.5t-155.5 56.5q-131 0 -208 -94.5t-77 -260.5q0 -25 2 -36h320 v-54h-313q25 -160 137 -251t266 -91q166 0 250 131z" glyph-name="afii10101" horiz-adv-x="997" unicode="є"/><glyph d="M420 -12q-147 0 -253 60.5t-106 170.5q0 47 22.5 72.5t59.5 25.5q35 0 55.5 -21.5t20.5 -47.5q0 -104 71.5 -157.5t170.5 -53.5q88 0 136 41t48 112q0 37 -16.5 69t-35 49.5t-61.5 37t-65.5 27.5t-75.5 24q-61 18 -107 40t-94.5 54.5t-75 81t-26.5 109.5 q0 117 98.5 188.5t257.5 71.5q141 0 240.5 -56.5t99.5 -150.5t-86 -94q-70 0 -69 72q0 80 -61.5 131t-153.5 51q-166 0 -166 -147q0 -84 52 -124t165 -77q70 -23 96.5 -32t87 -36.5t88 -53.5t52 -69t24.5 -96q0 -123 -111.5 -197.5t-281.5 -74.5z" glyph-name="afii10102" horiz-adv-x="874" unicode="ѕ"/><glyph d="M248 1163q-41 0 -72 32t-31 73t31 71.5t72 30.5t71.5 -30.5t30.5 -71.5t-30.5 -73t-71.5 -32zM53 0v43q74 8 102.5 30.5t28.5 78.5v577q0 74 -25.5 100.5t-107.5 18.5v39l225 51q72 16 72 -59v-727q0 -55 29 -78t104 -31v-43h-428z" glyph-name="afii10103" unicode="і"/><glyph d="M55 1163q-41 0 -71.5 32t-30.5 73t30.5 71.5t71.5 30.5t72 -30.5t31 -71.5t-31 -73t-72 -32zM432 1163q-41 0 -71.5 32t-30.5 73t30.5 71.5t71.5 30.5t72 -30.5t31 -71.5t-31 -73t-72 -32zM53 0v43q74 8 102.5 30.5t28.5 78.5v577q0 74 -25.5 100.5t-107.5 18.5v39 l225 51q72 16 72 -59v-727q0 -55 29 -78t104 -31v-43h-428z" glyph-name="afii10104" unicode="ї"/><glyph d="M233.5 1163q-40.5 0 -71.5 32t-31 73t31 71.5t71.5 30.5t71.5 -30.5t31 -71.5t-31 -73t-71.5 -32zM74 -410q-78 0 -135.5 33t-57.5 94q0 37 21.5 59.5t60.5 22.5q29 0 51.5 -23.5t35.5 -53t31.5 -53t41.5 -23.5q49 0 49 106v977q0 74 -25.5 100.5t-107.5 18.5v39l225 51 q72 16 72 -59v-1006q0 -133 -71.5 -208t-190.5 -75z" glyph-name="afii10105" horiz-adv-x="468" unicode="ј"/><glyph d="M539 1149q-125 0 -197 69.5t-72 174.5q0 23 17 22h22q16 0 21 -16q10 -53 66.5 -93t142.5 -40t142 40t69 93q4 16 20 16h23q16 0 16 -22q0 -104 -72.5 -174t-197.5 -70zM244 -406q-76 0 -120 35t-44 90q0 45 29.5 73t74.5 28q39 0 57.5 -23.5t20.5 -52.5t13.5 -52.5 t39.5 -23.5q63 0 123 152q47 121 -8 268l-246 604q-39 98 -68.5 131t-95.5 58v43h408v-43q-84 -25 -95 -56.5t29 -132.5l183 -448q14 -31 24.5 -40t21.5 1t25 41l91 233q51 129 73.5 204t13 115t-31 54t-74.5 29v43h363v-43q-88 -25 -126 -59t-75 -130l-344 -850 q-53 -129 -105.5 -188.5t-156.5 -59.5z" glyph-name="afii10110" horiz-adv-x="1071" unicode="ў"/><glyph d="M61 0v43q68 12 95.5 31.5t27.5 72.5v977q0 53 -26.5 73t-96.5 34v41h693q66 0 107.5 14t56 27.5t47.5 50.5h47l-43 -147h-473q-66 0 -95.5 -19.5t-29.5 -73.5v-977q0 -53 30.5 -72.5t114.5 -31.5v-43h-455z" glyph-name="afii10050" horiz-adv-x="1062" unicode="Ґ"/><glyph d="M61 0v39q66 10 88.5 29.5t22.5 76.5v646q0 49 -25.5 68.5t-85.5 25.5v39h504q115 0 160 23.5t72 86.5h39l-27 -172h-422q-51 0 -51 -53v-664q0 -57 22.5 -76.5t87.5 -29.5v-39h-385z" glyph-name="afii10098" horiz-adv-x="876" unicode="ґ"/><glyph d="M731 1305q276 0 459.5 -184.5t183.5 -465.5q0 -289 -192.5 -482t-476.5 -193q-276 0 -460 184t-184 467q0 287 192.5 480.5t477.5 193.5zM678 1237q-168 0 -288 -130t-120 -400v-35h891q-23 252 -160 408.5t-323 156.5zM758 47q168 0 287.5 131t119.5 404v30h-891 q25 -252 162.5 -408.5t321.5 -156.5z" glyph-name="uni04E8" horiz-adv-x="1435" unicode="Ө"/><glyph d="M537 942q195 0 331 -130t136 -343q0 -215 -138.5 -348t-335.5 -133q-195 0 -332 130t-137 345t138.5 347t337.5 132zM483 885q-111 0 -177 -88t-66 -258q0 -35 2 -52h579q-23 172 -115 285t-223 113zM582 45q111 0 178 89t67 259q0 31 -2 47h-579q23 -170 114 -282.5 t222 -112.5z" glyph-name="uni04E9" horiz-adv-x="1064" unicode="ө"/><glyph d="M1114 1438q-12 -18 -59 6l-240 145q-51 31 -62.5 71t13.5 60q57 61 129 -16l203 -215q28 -28 16 -51zM635 0l-402 1028q-43 113 -79.5 152t-112.5 49v43h451v-43q-90 -14 -105.5 -45t12.5 -92l318 -824q20 -49 41 0l200 520q39 104 -12 240q-45 115 -81 153t-111 48v43 h448v-43q-90 -14 -105.5 -45t15.5 -92l315 -824q20 -49 41 0l312 813q45 127 -129 148v43h387v-43q-74 -14 -114 -45t-69 -103l-356 -923q-39 -106 -39 -158h-114l-310 799l-248 -641q-41 -111 -40 -158h-113z" glyph-name="Wgrave" horiz-adv-x="2078" unicode="Ẁ"/><glyph d="M961 1090q-14 -20 -60 6l-239 145q-53 31 -64.5 71t12.5 60q57 61 129 -16l203 -215q31 -28 19 -51zM457 0l-273 692q-37 96 -66.5 130t-97.5 59v43h404v-43q-84 -25 -95.5 -56.5t29.5 -132.5l170 -436q14 -35 25.5 -46t23 0t23.5 46l64 178q61 168 10 297 q-25 61 -56.5 93t-95.5 57v43h402v-43q-82 -25 -93.5 -56.5t27.5 -132.5l172 -436q14 -35 25.5 -46t23 0t23.5 46l78 223q49 135 68.5 207t12 114t-28 54t-73.5 27v43h365v-43q-90 -25 -126 -59t-75 -130l-272 -692h-95l-204 520l-203 -520h-92z" glyph-name="wgrave" horiz-adv-x="1544" unicode="ẁ"/><glyph d="M977 1438q-12 23 16 51l203 215q72 78 129 16q25 -20 13.5 -60t-62.5 -71l-240 -145q-47 -24 -59 -6zM635 0l-402 1028q-43 113 -79.5 152t-112.5 49v43h451v-43q-90 -14 -105.5 -45t12.5 -92l318 -824q20 -49 41 0l200 520q39 104 -12 240q-45 115 -81 153t-111 48v43 h448v-43q-90 -14 -105.5 -45t15.5 -92l315 -824q20 -49 41 0l312 813q45 127 -129 148v43h387v-43q-74 -14 -114 -45t-69 -103l-356 -923q-39 -106 -39 -158h-114l-310 799l-248 -641q-41 -111 -40 -158h-113z" glyph-name="Wacute" horiz-adv-x="2078" unicode="Ẃ"/><glyph d="M729 1090q-12 23 19 51l202 215q72 76 127 16q25 -20 13.5 -60t-62.5 -71l-240 -145q-45 -26 -59 -6zM457 0l-273 692q-37 96 -66.5 130t-97.5 59v43h404v-43q-84 -25 -95.5 -56.5t29.5 -132.5l170 -436q14 -35 25.5 -46t23 0t23.5 46l64 178q61 168 10 297 q-25 61 -56.5 93t-95.5 57v43h402v-43q-82 -25 -93.5 -56.5t27.5 -132.5l172 -436q14 -35 25.5 -46t23 0t23.5 46l78 223q49 135 68.5 207t12 114t-28 54t-73.5 27v43h365v-43q-90 -25 -126 -59t-75 -130l-272 -692h-95l-204 520l-203 -520h-92z" glyph-name="wacute" horiz-adv-x="1544" unicode="ẃ"/><glyph d="M846 1511q-41 0 -72 32t-31 73t31 71.5t72 30.5t71.5 -30.5t30.5 -71.5t-30.5 -73t-71.5 -32zM1223 1511q-41 0 -72 32t-31 73t31 71.5t72 30.5t71.5 -30.5t30.5 -71.5t-30.5 -73t-71.5 -32zM635 0l-402 1028q-43 113 -79.5 152t-112.5 49v43h451v-43q-90 -14 -105.5 -45 t12.5 -92l318 -824q20 -49 41 0l200 520q39 104 -12 240q-45 115 -81 153t-111 48v43h448v-43q-90 -14 -105.5 -45t15.5 -92l315 -824q20 -49 41 0l312 813q45 127 -129 148v43h387v-43q-74 -14 -114 -45t-69 -103l-356 -923q-39 -106 -39 -158h-114l-310 799l-248 -641 q-41 -111 -40 -158h-113z" glyph-name="Wdieresis" horiz-adv-x="2078" unicode="Ẅ"/><glyph d="M577.5 1163q-40.5 0 -71.5 32t-31 73t31 71.5t71.5 30.5t71.5 -30.5t31 -71.5t-31 -73t-71.5 -32zM952 1163q-39 0 -69.5 32t-30.5 73t29.5 71.5t70.5 30.5t72 -30.5t31 -71.5t-31 -73t-72 -32zM457 0l-273 692q-37 96 -66.5 130t-97.5 59v43h404v-43 q-84 -25 -95.5 -56.5t29.5 -132.5l170 -436q14 -35 25.5 -46t23 0t23.5 46l64 178q61 168 10 297q-25 61 -56.5 93t-95.5 57v43h402v-43q-82 -25 -93.5 -56.5t27.5 -132.5l172 -436q14 -35 25.5 -46t23 0t23.5 46l78 223q49 135 68.5 207t12 114t-28 54t-73.5 27v43h365v-43 q-90 -25 -126 -59t-75 -130l-272 -692h-95l-204 520l-203 -520h-92z" glyph-name="wdieresis" horiz-adv-x="1544" unicode="ẅ"/><glyph d="M739 1475q-88 0 -216 64.5t-167 64.5q-35 0 -60.5 -25t-25.5 -70h-45q0 102 56.5 158.5t140.5 56.5q86 0 214 -64.5t169 -64.5q35 0 60.5 26t25.5 69h45q0 -102 -56.5 -158.5t-140.5 -56.5zM61 0v43q68 12 95.5 31.5t27.5 72.5v977q0 53 -27.5 73t-95.5 32v43h930 q29 0 31 -25q12 -106 41 -223h-39q-39 96 -100.5 143t-163.5 47h-262q-66 0 -96.5 -20t-30.5 -76v-350q0 -55 29.5 -73.5t97.5 -18.5h202q88 0 121 33.5t47 113.5h33v-354h-33q-14 78 -47 113.5t-121 35.5h-202q-66 0 -96.5 -19t-30.5 -73v-370q0 -57 40 -78t152 -19l236 2 q102 2 148 30t77 81l49 76h41q-45 -82 -61 -219q-4 -29 -33 -29h-959z" glyph-name="uni1EBC" horiz-adv-x="1150" unicode="Ẽ"/><glyph d="M653 1126q-88 0 -216 64.5t-167 64.5q-35 0 -60.5 -24.5t-25.5 -69.5h-45q0 102 56.5 158.5t140.5 56.5q86 0 214 -64.5t169 -64.5q35 0 60.5 25.5t25.5 68.5h45q0 -102 -56.5 -158.5t-140.5 -56.5zM532 -12q-199 0 -335 131t-136 348q0 219 136.5 347t339.5 128 q154 0 244.5 -74.5t90.5 -191.5q0 -100 -86 -143.5t-305 -53.5l-182 -8q-63 -2 -51 -86q20 -131 124.5 -209t245.5 -78q166 0 256 117l33 -27q-39 -74 -135.5 -137t-239.5 -63zM303 522l150 2q145 4 198.5 36t53.5 114q0 92 -51.5 152.5t-153.5 60.5q-115 0 -181.5 -73 t-80.5 -200q-6 -59 9 -76.5t56 -15.5z" glyph-name="uni1EBD" horiz-adv-x="978" unicode="ẽ"/><glyph d="M723 1438q-14 -20 -59 6l-240 145q-51 31 -62.5 71t13.5 60q55 59 127 -16l203 -215q30 -28 18 -51zM395 0v43q96 12 130 30.5t34 73.5v349q0 47 -43 116l-268 424q-61 96 -107.5 135t-109.5 58v43h454v-43q-80 -16 -91 -49t32 -97l266 -421q14 -18 29 0l252 413 q39 55 29.5 88t-35 46.5t-72.5 19.5v43h377v-43q-74 -8 -120 -43t-105 -129l-273 -436q-29 -47 -29 -125v-349q0 -55 34 -73.5t130 -30.5v-43h-514z" glyph-name="Ygrave" horiz-adv-x="1302" unicode="Ỳ"/><glyph d="M621 1090q-14 -20 -60 6l-239 145q-53 31 -64.5 71t12.5 60q57 61 129 -16l203 -215q31 -28 19 -51zM244 -406q-76 0 -120 35t-44 90q0 45 29.5 73t74.5 28q39 0 57.5 -23.5t20.5 -52.5t13.5 -52.5t39.5 -23.5q63 0 123 152q47 121 -8 268l-246 604q-39 98 -68.5 131 t-95.5 58v43h408v-43q-84 -25 -95 -56.5t29 -132.5l183 -448q14 -31 24.5 -40t21.5 1t25 41l91 233q51 129 73.5 204t13 115t-31 54t-74.5 29v43h363v-43q-88 -25 -126 -59t-75 -130l-344 -850q-53 -129 -105.5 -188.5t-156.5 -59.5z" glyph-name="ygrave" horiz-adv-x="1071" unicode="ỳ"/><glyph d="M102 510v53h1192v-53h-1192z" glyph-name="endash" horiz-adv-x="1396" unicode="–"/><glyph d="M102 510v53h1678v-53h-1678z" glyph-name="emdash" horiz-adv-x="1882" unicode="—"/><glyph d="M102 510v53h1678v-53h-1678z" glyph-name="afii00208" horiz-adv-x="1882" unicode="―"/><glyph d="M209 1307l24 -29q-31 -25 -51 -63.5t-20 -63.5q0 -35 31 -35q45 0 74.5 -29.5t29.5 -76.5q0 -49 -33 -79t-80 -30q-59 0 -91 43t-32 107q0 72 41 142.5t107 113.5z" glyph-name="quoteleft" horiz-adv-x="358" unicode="‘"/><glyph d="M152 897l-27 31q31 25 52.5 62.5t21.5 62.5q0 37 -33 37q-45 0 -75 29.5t-30 76.5q0 49 34 79t81 30q59 0 90 -43t31 -107q0 -74 -39.5 -143.5t-105.5 -114.5z" glyph-name="quoteright" horiz-adv-x="358" unicode="’"/><glyph d="M152 -195l-27 29q31 27 52.5 65t21.5 62q0 35 -33 35q-45 0 -75 30.5t-30 75.5q0 49 34 80t81 31q59 0 90 -43t31 -109q0 -72 -39.5 -142.5t-105.5 -113.5z" glyph-name="quotesinglbase" horiz-adv-x="358" unicode="‚"/><glyph d="M209 1305l24 -29q-31 -27 -51 -64.5t-20 -62.5q0 -35 31 -35q45 0 74.5 -30.5t29.5 -75.5q0 -49 -33 -80t-80 -31q-59 0 -91 44t-32 108q0 72 41 142.5t107 113.5zM518 1305l25 -29q-31 -27 -52.5 -66t-21.5 -61q0 -35 33 -35q45 0 74.5 -30.5t29.5 -75.5 q0 -49 -32.5 -80t-79.5 -31q-59 0 -91 44t-32 108q0 74 39.5 143.5t107.5 112.5z" glyph-name="quotedblleft" horiz-adv-x="667" unicode="“"/><glyph d="M152 897l-27 31q31 25 52.5 62.5t21.5 62.5q0 37 -33 37q-45 0 -75 29.5t-30 76.5q0 49 34 79t81 30q59 0 90 -43t31 -107q0 -74 -39.5 -143.5t-105.5 -114.5zM459 897l-25 31q31 25 52.5 62.5t21.5 62.5q0 37 -33 37q-45 0 -74.5 29.5t-29.5 76.5q0 49 32.5 79t79.5 30 q59 0 91 -43t32 -107q0 -74 -39.5 -143.5t-107.5 -114.5z" glyph-name="quotedblright" horiz-adv-x="667" unicode="”"/><glyph d="M152 -195l-27 29q31 27 52.5 65t21.5 62q0 35 -33 35q-45 0 -75 30.5t-30 75.5q0 49 34 80t81 31q59 0 90 -43t31 -109q0 -72 -39.5 -142.5t-105.5 -113.5zM455 -195l-27 29q31 27 52.5 65t21.5 62q0 35 -33 35q-45 0 -74.5 30.5t-29.5 75.5q0 49 33.5 80t80.5 31 q59 0 90 -43t31 -109q0 -72 -39.5 -142.5t-105.5 -113.5z" glyph-name="quotedblbase" horiz-adv-x="661" unicode="„"/><glyph d="M469 276l-129 426l102 103l4 86q-66 0 -137 -40t-94 -40q-45 0 -79 34t-34 79t34 79.5t79 34.5q20 0 95 -41t141 -39q4 61 -38 134t-42 96q0 45 33.5 80t78.5 35t79 -35t34 -80q0 -23 -42 -95.5t-38 -134.5q66 -2 140.5 39t95.5 41q45 0 78.5 -34.5t33.5 -79.5t-33.5 -79 t-78.5 -34q-23 0 -95.5 40t-136.5 40l4 -86l103 -103l-129 -426h-29z" glyph-name="dagger" horiz-adv-x="966" unicode="†"/><glyph d="M483 -70q-45 0 -78.5 35t-33.5 80q0 23 43 98.5t41 137.5q-66 2 -142.5 -41t-97.5 -43q-45 0 -79 33.5t-34 78.5t34 80t79 35q20 0 97 -43t143 -41v78l-113 200l113 197v80q-66 2 -142.5 -41t-97.5 -43q-45 0 -79 34t-34 79t34 79.5t79 34.5q20 0 97 -43t143 -41 q2 61 -41 136t-43 98q0 45 33.5 80t78.5 35t79 -35t34 -80q0 -23 -43 -97.5t-41 -136.5q66 -2 142.5 41t97.5 43q45 0 78.5 -34.5t33.5 -79.5t-33.5 -79t-78.5 -34q-20 0 -97 43t-143 41v-80l111 -199l-111 -198v-78q66 -2 142.5 41t97.5 43q45 0 78.5 -35t33.5 -80 t-33.5 -78.5t-78.5 -33.5q-20 0 -97 43t-143 41q-2 -61 41 -137t43 -99q0 -45 -34 -80t-79 -35z" glyph-name="daggerdbl" horiz-adv-x="966" unicode="‡"/><glyph d="M295 428q-70 0 -121 50t-51 122t51 123t121 51t122 -51t52 -123q0 -70 -51 -121t-123 -51z" glyph-name="bullet" horiz-adv-x="591" unicode="•"/><glyph d="M192.5 -12q-45.5 0 -78 33.5t-32.5 78.5t32.5 79t78 34t79 -33t33.5 -80t-33.5 -79.5t-79 -32.5zM541 -12q-45 0 -78 33.5t-33 78.5t33 79t78 34t78.5 -33t33.5 -80t-33.5 -79.5t-78.5 -32.5zM889 -12q-45 0 -78 33.5t-33 78.5t33 79t78 34t78.5 -33t33.5 -80 t-33.5 -79.5t-78.5 -32.5z" glyph-name="ellipsis" horiz-adv-x="1083" unicode="…"/><glyph d="M1044 1272h66l-827 -1272h-158l885 1223q-68 -53 -150 -64.5t-132 0.5t-142 41q41 -63 41 -145q0 -129 -96.5 -227.5t-219.5 -98.5q-98 0 -153.5 67.5t-55.5 164.5q0 129 96.5 227t219.5 98q94 0 186 -23.5t144.5 -42t129 -10t166.5 61.5zM354 778q68 0 101.5 72 t33.5 180q0 205 -114 205q-68 0 -101.5 -71.5t-33.5 -180.5q-1 -205 114 -205zM987 537q98 0 153.5 -68t55.5 -166q0 -129 -96 -227.5t-219 -98.5q-98 0 -153.5 68t-55.5 164q0 129 96 228.5t219 99.5zM1583 537q98 0 153.5 -68t55.5 -166q0 -129 -96.5 -227.5t-218.5 -98.5 q-98 0 -153.5 68t-55.5 164q0 129 96 228.5t219 99.5zM924 29q68 0 101.5 71.5t33.5 180.5q0 205 -115 204q-68 0 -101.5 -71.5t-33.5 -180.5q0 -204 115 -204zM1520 29q68 0 101.5 71.5t33.5 180.5q0 205 -115 204q-68 0 -101.5 -71.5t-33.5 -180.5q0 -204 115 -204z" glyph-name="perthousand" horiz-adv-x="1894" unicode="‰"/><glyph d="M102 608l283 248l29 -22l-160 -226l160 -227l-29 -23z" glyph-name="guilsinglleft" horiz-adv-x="516" unicode="‹"/><glyph d="M414 608l-285 -250l-27 23l160 227l-160 226l27 22z" glyph-name="guilsinglright" horiz-adv-x="516" unicode="›"/><glyph d="M-317 -10l901 1313h90l-899 -1313h-92z" glyph-name="fraction" horiz-adv-x="335" unicode="⁄"/><glyph d="M1331 285l29 -25q-55 -100 -187.5 -190t-328.5 -90q-238 0 -423 145t-226 393h-134v39h127q-4 53 -4 84q0 27 2 41h-125v41h127q29 266 222.5 424t449.5 158q215 0 350.5 -102.5t135.5 -223.5q0 -55 -32 -91t-85 -36q-102 0 -113 127q-8 102 -88 181t-235 79 q-190 0 -306 -134t-116 -366v-16h522v-41h-520q6 -74 20 -125h500v-39h-490q59 -190 211 -301t349 -111q208 1 368 179z" glyph-name="Euro" horiz-adv-x="1431" unicode="€"/><glyph d="M78 1272h446l17 -125h-33q-27 59 -55 72q-16 6 -37 6q-57 0 -58 -54v-256q0 -41 17.5 -56t56.5 -19v-33h-260v33q39 4 56.5 19t17.5 56v256q0 53 -58 54q-29 0 -49 -14.5t-26.5 -25.5t-18.5 -38h-33zM1155 1239q-35 -4 -44 -21.5t-9 -62.5v-231q0 -45 9 -62.5t44 -21.5 v-33h-221v33q33 4 44 21.5t11 62.5v215l-135 -283h-29l-135 262v-194q0 -43 11.5 -61.5t43.5 -22.5v-33h-161v33q35 4 45 21.5t10 62.5v231q0 45 -11.5 62.5t-43.5 21.5v33h147l141 -271l129 271h154v-33z" glyph-name="trademark" horiz-adv-x="1216" unicode="™"/><glyph d="M39 -10l901 1313h90l-899 -1313h-92zM66 776v29l12 6q14 4 17 5t13.5 7t13.5 12.5t7 16.5t4 22v316h-72v33l129 63q43 23 43 -31v-381q0 -10 2.5 -19t6.5 -15t8 -10.5t11 -9.5t10 -6t12.5 -5t11.5 -4v-29h-229zM958 -10q-86 0 -141 42t-55 109q0 100 98 125 q-70 33 -69 115q0 59 47 99t129 40q78 0 124 -38t46 -95q0 -70 -66 -102q100 -45 100 -135q0 -70 -60.5 -115t-152.5 -45zM973 307q33 -10 54.5 16.5t21.5 67.5q0 88 -82 88q-76 0 -76 -82q0 -67 82 -90zM963 33q94 0 94 98q0 88 -88 107l-21 4q-39 8 -66.5 -19.5 t-27.5 -77.5q0 -47 28 -79.5t81 -32.5z" glyph-name="oneeighth" horiz-adv-x="1243" unicode="⅛"/><glyph d="M283 -10l901 1313h90l-897 -1313h-94zM270 766q-88 0 -143 44t-55 110q0 57 49 57q29 0 39 -12.5t13 -40t5 -35.5q29 -80 98 -80q45 0 72 34t27 91q0 72 -48 90t-100 -12l-18 37l33 12q100 37 100 106q0 86 -74 86q-55 0 -71.5 -46t-1.5 -89q-47 -20 -73 -4t-26 53 q0 53 48.5 91t129.5 38q80 0 127.5 -35.5t47.5 -86.5q0 -76 -99 -109q66 -2 101.5 -39t35.5 -90q0 -74 -62.5 -122t-154.5 -48zM1196 -10q-86 0 -141.5 42t-55.5 109q0 100 99 125q-70 33 -70 115q0 59 47 99t129 40q78 0 124 -38t46 -95q0 -70 -65 -102q100 -45 100 -135 q0 -70 -60.5 -115t-152.5 -45zM1210 307q33 -10 54.5 16.5t21.5 67.5q0 88 -82 88q-74 0 -74 -82q0 -67 80 -90zM1200 33q94 0 94 98q0 88 -88 107l-20 4q-39 8 -66.5 -19.5t-27.5 -77.5q0 -47 27.5 -79.5t80.5 -32.5z" glyph-name="threeeighths" horiz-adv-x="1490" unicode="⅜"/><glyph d="M258 -10l901 1313h90l-899 -1313h-92zM270 754q-88 0 -143 44t-55 109q0 53 49 54q29 0 39 -11.5t13 -38t5 -34.5q29 -80 98 -80q45 0 72 33.5t27 91.5q0 61 -32 99t-83 38t-100 -41h-60l21 254h291l37 10l-21 -98h-250l-8 -119q35 49 125 49q74 0 133 -47t59 -129 q0 -84 -61.5 -134t-155.5 -50zM1171 -10q-86 0 -141 42t-55 109q0 100 98 125q-70 33 -69 115q0 59 47 99t129 40q78 0 124 -38t46 -95q0 -70 -66 -102q100 -45 100 -135q0 -70 -60.5 -115t-152.5 -45zM1186 307q33 -10 54.5 16.5t21.5 67.5q0 88 -82 88q-76 0 -76 -82 q0 -67 82 -90zM1176 33q94 0 94 98q0 88 -88 107l-21 4q-39 8 -66.5 -19.5t-27.5 -77.5q0 -47 28 -79.5t81 -32.5z" glyph-name="fiveeighths" horiz-adv-x="1456" unicode="⅝"/><glyph d="M207 -10l901 1313h90l-899 -1313h-92zM135 776l256 408h-264l-55 -35l32 123h377l-235 -496h-111zM1120 -10q-86 0 -141 42t-55 109q0 100 98 125q-70 33 -70 115q0 59 47.5 99t128.5 40q78 0 124 -38t46 -95q0 -70 -65 -102q100 -45 100 -135q0 -70 -60.5 -115 t-152.5 -45zM1135 307q33 -10 54 16.5t21 67.5q0 88 -82 88q-76 0 -75 -82q0 -67 82 -90zM1124 33q94 0 95 98q0 88 -89 107l-20 4q-39 8 -66.5 -19.5t-27.5 -77.5q0 -47 27.5 -79.5t80.5 -32.5z" glyph-name="seveneighths" horiz-adv-x="1384" unicode="⅞"/><glyph d="M530 -20q-209 0 -333.5 128t-124.5 308q0 170 113.5 284.5t281.5 114.5q125 0 226.5 -62.5t125.5 -121.5q0 106 -20.5 206.5t-63.5 194.5t-126 151.5t-193 57.5q-76 0 -158 -43l-25 39q78 68 226 68q141 0 248.5 -61.5t170 -166t93 -227.5t30.5 -258q0 -123 -24.5 -228.5 t-76.5 -193.5t-147.5 -139t-222.5 -51zM514 33q137 0 220 116.5t83 264.5q0 141 -85 231t-206 90q-125 0 -197.5 -97t-72.5 -249q0 -141 64.5 -248.5t193.5 -107.5z" glyph-name="partialdiff" horiz-adv-x="1062" unicode="∂"/><glyph d="M868 819q145 -131 146 -350q0 -215 -138.5 -348t-334.5 -133q-160 0 -285 92l-59 -72l-29 23l59 71q-156 135 -155 361q0 215 138 347t337 132q168 0 295 -98l65 80l29 -23zM250 539q0 -182 76 -318l422 510q-100 154 -254 154q-111 0 -177.5 -88t-66.5 -258zM592 45 q111 0 178.5 89t67.5 259q0 174 -70 303l-422 -508q96 -143 246 -143z" glyph-name="emptyset" horiz-adv-x="1085" unicode="∅"/><glyph d="M102 -410v2048h938v-2048h-55v1995h-827v-1995h-56z" glyph-name="product" horiz-adv-x="1142" unicode="∏"/><glyph d="M983 1638v-53h-809l647 -973l-647 -968h809v-54h-881v54l648 970l-648 971v53h881z" glyph-name="summation" horiz-adv-x="1085" unicode="∑"/><glyph d="M102 487v56h758v-56h-758z" glyph-name="minus" horiz-adv-x="962" unicode="−"/><glyph d="M508 -410l-285 680q-39 90 -74.5 132t-107.5 69v43l246 -4l280 -684l635 1812h197v-43q-90 -25 -128 -65.5t-73 -132.5l-645 -1807h-45z" glyph-name="radical" horiz-adv-x="1439" unicode="√"/><glyph d="M424 137q-139 0 -230.5 108.5t-91.5 299.5q0 182 83 284.5t208 102.5q166 0 289 -189q111 188 301 189q141 0 231.5 -108.5t90.5 -299.5q0 -182 -83 -284.5t-208 -102.5q-166 0 -287 191q-115 -191 -303 -191zM367 311q166 0 233 189l59 162q-98 133 -258 133 q-96 0 -168.5 -58.5t-72.5 -187.5q0 -123 60.5 -180.5t146.5 -57.5zM1006 276q96 0 168.5 58.5t72.5 187.5q0 123 -60.5 180.5t-146.5 57.5q-72 0 -135 -46t-98 -143l-57 -163q96 -132 256 -132z" glyph-name="infinity" horiz-adv-x="1406" unicode="∞"/><glyph d="M78 -440q-121 0 -191.5 55t-70.5 127q0 43 26.5 62.5t61.5 19.5q41 0 62.5 -34t26.5 -75t32.5 -74.5t83.5 -33.5q88 0 118.5 71.5t30.5 223.5v1102q0 180 96.5 276t245.5 96q123 0 193.5 -55t70.5 -127q0 -41 -26.5 -60.5t-61.5 -19.5q-41 0 -62.5 34t-27.5 74 t-33.5 73.5t-83.5 33.5q-88 0 -117.5 -71.5t-29.5 -223.5v-1100q0 -180 -96 -277t-248 -97z" glyph-name="integral" horiz-adv-x="843" unicode="∫"/><glyph d="M723 553q-106 0 -260 72.5t-201 72.5q-45 0 -75.5 -27.5t-30.5 -78.5h-54q0 117 68 180.5t170 63.5q104 0 258 -73t203 -73q45 0 75.5 27.5t30.5 79.5h54q0 -117 -68 -180.5t-170 -63.5zM723 205q-106 0 -260 72.5t-201 72.5q-45 0 -75.5 -27.5t-30.5 -78.5h-54 q0 117 68 180t170 63q104 0 258 -72.5t203 -72.5q45 0 75.5 27.5t30.5 79.5h54q0 -117 -68 -180.5t-170 -63.5z" glyph-name="approxequal" horiz-adv-x="1062" unicode="≈"/><glyph d="M860 672h-266l-131 -314h397v-55h-420l-127 -305h-59l127 305h-279v55h301l132 314h-433v55h457l119 287h59l-119 -287h242v-55z" glyph-name="notequal" horiz-adv-x="962" unicode="≠"/><glyph d="M858 242l-756 360v70l756 358v-67l-678 -326l678 -328v-67zM858 0h-758v55h758v-55z" glyph-name="lessequal" horiz-adv-x="960" unicode="≤"/><glyph d="M102 242v67l678 328l-678 326v67l756 -358v-70zM102 0v55h758v-55h-758z" glyph-name="greaterequal" horiz-adv-x="960" unicode="≥"/><glyph d="M362 0l-290 635l290 637h119l291 -637l-291 -635h-119zM422 76l246 559l-246 559l-246 -559z" glyph-name="lozenge" horiz-adv-x="843" unicode="◊"/><glyph d="M248 1163q-41 0 -72 32t-31 73t31 71.5t72 30.5t71.5 -30.5t30.5 -71.5t-30.5 -73t-71.5 -32zM53 0v43q74 8 102.5 30.5t28.5 78.5v577q0 74 -25.5 100.5t-107.5 18.5v39l225 51q72 16 72 -59v-727q0 -55 29 -78t104 -31v-43h-428z" glyph-name="i.aalt"/><glyph d="M532 -12q-199 0 -335 131t-136 348q0 219 139.5 347t342.5 128q160 0 257 -80t97 -200q0 -104 -87 -145.5t-302 -47.5l-209 -6q-37 -2 -47 -20.5t-4 -61.5q20 -131 124.5 -207t245.5 -76q164 0 254 117l35 -27q-39 -72 -136.5 -136t-238.5 -64zM303 512l176 2 q139 2 194.5 40t55.5 122q0 94 -55.5 152.5t-161.5 58.5q-121 0 -191.5 -73t-82.5 -200q-6 -63 9 -82.5t56 -19.5z" glyph-name="glyph452" horiz-adv-x="978"/><glyph d="M41 0v43q80 8 110.5 30.5t30.5 78.5v673q0 43 -45 43h-96v39q78 8 109.5 24.5t31.5 55.5v12q0 190 95.5 294t248.5 104q115 0 178.5 -55.5t63.5 -135.5q0 -45 -24.5 -66.5t-59.5 -21.5q-41 0 -61.5 36t-24.5 80t-31.5 80t-83.5 36q-84 0 -110.5 -82t-26.5 -275v-16 q0 -53 41 -53h223v-56h-223q-41 0 -41 -43v-673q0 -55 31 -78t115 -31v-43h-451z" glyph-name="glyph453" horiz-adv-x="747"/><glyph d="M420 -12q-147 0 -253 60.5t-106 170.5q0 47 22.5 72.5t59.5 25.5q35 0 55.5 -21.5t20.5 -47.5q0 -104 71.5 -157.5t170.5 -53.5q88 0 136 41t48 112q0 37 -16.5 69t-35 49.5t-61.5 37t-65.5 27.5t-75.5 24q-61 18 -107 40t-94.5 54.5t-75 81t-26.5 109.5 q0 117 98.5 188.5t257.5 71.5q141 0 240.5 -56.5t99.5 -150.5t-86 -94q-70 0 -69 72q0 80 -61.5 131t-153.5 51q-166 0 -166 -147q0 -84 52 -124t165 -77q70 -23 96.5 -32t87 -36.5t88 -53.5t52 -69t24.5 -96q0 -123 -111.5 -197.5t-281.5 -74.5z" glyph-name="s.aalt" horiz-adv-x="874"/><glyph d="M842 -12q-27 0 -27 28v930q0 186 -72.5 287.5t-212.5 101.5q-106 0 -138 -63.5t-32 -216.5v-78q0 -39 20.5 -51.5t86.5 -12.5h141v-69l-141 4q-66 2 -86.5 -11.5t-20.5 -52.5v-632q0 -55 37 -78t146 -31v-43h-492v43q84 8 115 30.5t31 78.5v636q0 35 -11.5 47.5 t-33.5 12.5h-111v45q86 14 121 34.5t35 67.5v29q0 180 111.5 276.5t285.5 96.5q172 0 278.5 -93.5t106.5 -297.5v-168q0 -16 10 -20.5t27 11.5q35 41 114.5 77t174.5 36q172 0 287.5 -127t115.5 -334q0 -227 -131 -360t-311 -133q-74 0 -142.5 24.5t-113.5 50t-64 25.5 q-29 0 -57.5 -50t-46.5 -50zM1276 41q123 0 195.5 97.5t72.5 258.5q0 184 -92 308t-235 124q-96 0 -167 -57t-71 -194v-211q0 -160 91 -243t206 -83z" glyph-name="f_b.dlig" horiz-adv-x="1769"/><glyph d="M1587 -12q-129 0 -129 145v422q0 129 -61.5 207t-172 78t-178 -79t-67.5 -206v-403q0 -55 28.5 -78t102.5 -31v-43h-426v43q74 8 102.5 30.5t28.5 78.5v794q0 186 -72.5 287.5t-212.5 101.5q-106 0 -138 -63.5t-32 -216.5v-78q0 -39 20.5 -51.5t86.5 -12.5h141v-69 l-141 4q-66 2 -86.5 -11.5t-20.5 -52.5v-632q0 -55 37 -78t146 -31v-43h-492v43q84 8 115 30.5t31 78.5v636q0 35 -11.5 47.5t-33.5 12.5h-111v45q86 14 121 34.5t35 67.5v29q0 180 111.5 276.5t285.5 96.5q172 0 278.5 -93.5t106.5 -297.5v-129q0 -96 31 -86q8 2 16 10 l14 14l19.5 19.5t26 22.5t34 25.5t39 23t47 19.5t53 12t62.5 5q129 0 215 -84t86 -256v-465q0 -88 104 -69v-25q-41 -55 -139 -55z" glyph-name="f_h.dlig" horiz-adv-x="1763"/><glyph d="M51 0v43q84 8 115 30.5t31 78.5v636q0 35 -11.5 47.5t-33.5 12.5h-111v45q86 14 121 34.5t35 67.5q0 199 96 300.5t266 101.5q121 0 193.5 -45t72.5 -115q0 -76 -80 -76q-39 0 -70.5 28t-52 59.5t-59.5 59t-92 27.5q-70 0 -90.5 -49t-20.5 -166v-143q0 -39 20.5 -51.5 t86.5 -12.5h141v-69l-141 4q-66 2 -86.5 -11.5t-20.5 -52.5v-632q0 -55 37 -78t146 -31v-43h-492zM748 -410q-80 0 -136.5 33t-56.5 94q0 82 80 82q29 0 51.5 -23.5t35.5 -53t31.5 -53t41.5 -23.5q49 0 49 106v977q0 74 -25.5 100.5t-107.5 18.5v39l225 51q72 16 72 -59 v-1006q0 -131 -70.5 -207t-189.5 -76z" glyph-name="f_j.dlig" horiz-adv-x="1140"/><glyph d="M51 0v43q84 8 115 30.5t31 78.5v636q0 35 -11.5 47.5t-33.5 12.5h-111v45q86 14 121 34.5t35 67.5v29q0 180 111.5 276.5t285.5 96.5q172 0 278.5 -93.5t106.5 -297.5v-467q0 -29 14.5 -38t34.5 7l320 291q51 45 -21 69q-25 8 -61 13v43h340v-43q-20 -2 -36 -5.5 t-31 -9.5t-23.5 -9t-22.5 -14.5t-18.5 -13.5t-22.5 -18t-22 -20l-228 -201l326 -451q43 -59 70.5 -73.5t93.5 -22.5v-43h-383v43q57 8 64 23.5t-23 58.5l-242 340q-18 23 -53 -6q-76 -63 -76 -125v-182q0 -55 28.5 -78t102.5 -31v-43h-426v43q74 8 102.5 30.5t28.5 78.5v794 q0 186 -72.5 287.5t-212.5 101.5q-106 0 -138 -63.5t-32 -216.5v-78q0 -39 20.5 -51.5t86.5 -12.5h141v-69l-141 4q-66 2 -86.5 -11.5t-20.5 -52.5v-632q0 -55 37 -78t146 -31v-43h-492z" glyph-name="f_k.dlig" horiz-adv-x="1691"/><glyph d="M530 -12q-195 0 -332 130t-137 345t138.5 347t337.5 132q195 0 331 -130t136 -343q0 -215 -138.5 -348t-335.5 -133zM582 45q111 0 178 89t67 259q0 203 -97 347.5t-247 144.5q-111 0 -177 -88t-66 -258q0 -205 96 -349.5t246 -144.5z" glyph-name="zero.oldstyle" horiz-adv-x="1064"/><glyph d="M76 0v41q88 10 121.5 32.5t33.5 78.5v550q0 49 -17 64.5t-67 11.5l-86 -6v41l275 121q59 27 59 -33v-749q0 -55 34 -78t124 -33v-41h-477z" glyph-name="one.oldstyle" horiz-adv-x="614"/><glyph d="M82 0q391 303 515 430t124 244q0 88 -56.5 151.5t-156.5 63.5q-117 0 -173 -61.5t-56 -139.5q0 -37 14 -70.5t14 -54.5q0 -47 -27.5 -68.5t-66.5 -21.5q-55 0 -87 45t-32 111q0 121 106.5 217t315.5 96q190 0 289.5 -78t99.5 -192q0 -96 -74.5 -187.5t-162.5 -145.5 t-198 -116.5t-142 -89.5l319 8q104 4 148.5 21.5t89.5 83.5h43l-15 -53q-33 -133 -16 -193h-815z" glyph-name="two.oldstyle" horiz-adv-x="1009"/><glyph d="M526 -383q-195 0 -324.5 101.5t-129.5 256.5q0 129 100 129q45 0 58.5 -21.5t24.5 -91t36 -128.5q76 -193 258 -193q137 0 220 96.5t83 256.5q0 145 -68.5 216.5t-175.5 71.5q-72 0 -166 -39l-22 56q195 66 268.5 121t73.5 173.5t-62.5 194.5t-175.5 76 q-104 0 -159.5 -69.5t-55.5 -182.5q0 -117 -86 -117q-51 0 -76.5 32t-25.5 83q0 119 110.5 211t315.5 92q193 0 293 -80t100 -207q0 -193 -262 -282q74 8 154.5 -24t144 -113.5t63.5 -196.5q0 -180 -149.5 -301t-364.5 -121z" glyph-name="three.oldstyle" horiz-adv-x="1122"/><glyph d="M516 -342v41q88 8 122 31.5t34 79.5v190h-586l-35 102l613 861l172 -33v-793h206v-137h-206v-190q0 -55 34.5 -79t122.5 -32v-41h-477zM190 137h482v750l-502 -703q-14 -20 -8.5 -33.5t28.5 -13.5z" glyph-name="four.oldstyle" horiz-adv-x="1124"/><glyph d="M526 -369q-195 0 -324.5 100.5t-129.5 260.5q0 127 100 127q45 0 58.5 -21.5t24.5 -91t36 -129.5q80 -193 258 -192q131 0 218 101t87 255q0 170 -96 290t-264 120q-190 0 -283 -140h-43l49 613h586l143 28l-22 -188h-670l-31 -371q55 57 148.5 94t191.5 37 q184 0 331.5 -115.5t147.5 -322.5q0 -195 -147.5 -325t-368.5 -130z" glyph-name="five.oldstyle" horiz-adv-x="1114"/><glyph d="M543 -20q-127 0 -222.5 51t-147.5 139t-76.5 193.5t-24.5 228.5q0 135 31.5 258t93 227.5t169 166t248.5 61.5q147 0 228 -68l-27 -39q-82 43 -158 43q-111 0 -192.5 -57.5t-125.5 -151.5t-63.5 -194.5t-19.5 -206.5q23 59 124 121.5t226 62.5q168 0 281.5 -114.5 t113.5 -284.5q0 -180 -123.5 -308t-334.5 -128zM561 33q129 0 193.5 107.5t64.5 248.5q0 154 -72.5 250t-199.5 96q-119 0 -205 -90t-86 -231q0 -145 84 -263t221 -118z" glyph-name="six.oldstyle" horiz-adv-x="1062"/><glyph d="M195 -348l639 1112h-441q-113 0 -173 -23.5t-97 -105.5h-51l92 305l151 -16h654l-643 -1272h-131z" glyph-name="seven.oldstyle" horiz-adv-x="1019"/><glyph d="M539 -20q-215 0 -341 103t-126 269q0 238 270 334q-90 45 -140 124t-50 173q0 141 113.5 231.5t293.5 90.5q178 0 283.5 -88.5t105.5 -219.5q0 -186 -207 -276q143 -47 222 -137t79 -211q0 -168 -142 -280.5t-361 -112.5zM567 778q119 -33 181.5 43t62.5 187 q0 102 -61.5 172.5t-198.5 70.5q-121 0 -177.5 -61.5t-56.5 -153.5q0 -190 232 -254zM559 33q147 0 222 82t75 207q0 111 -65.5 174t-221.5 104l-26 6q-131 37 -226.5 -23.5t-95.5 -211.5q0 -141 89 -239.5t249 -98.5z" glyph-name="eight.oldstyle" horiz-adv-x="1114"/><glyph d="M520 938q127 0 222.5 -51t147.5 -139.5t76.5 -193.5t24.5 -228q0 -135 -30.5 -258t-93 -227.5t-170 -166t-248.5 -61.5q-147 0 -226 68l25 38q82 -43 158 -43q111 0 193.5 57.5t125.5 153t63.5 195.5t20.5 207q-25 -61 -126 -124t-226 -63q-168 0 -282 115t-114 287 q0 178 125 306t334 128zM504 885q-129 0 -193.5 -107.5t-64.5 -249.5q0 -152 72.5 -249t197.5 -97q121 0 206 90t85 234q0 145 -83 262t-220 117z" glyph-name="nine.oldstyle" horiz-adv-x="1062"/><glyph d="M614.5 -20q-163.5 0 -282.5 96t-172.5 243.5t-53.5 323.5t53.5 322.5t172.5 243t282.5 96.5t282.5 -96.5t172 -243t53 -322.5t-53 -323.5t-172 -243.5t-282.5 -96zM633 35q291 0 291 555q0 129 -16.5 240.5t-52.5 209t-102.5 153.5t-156.5 56q-293 0 -293 -553 q0 -131 16.5 -242.5t52.5 -209t102.5 -153.5t158.5 -56z" glyph-name="zero.tnum" horiz-adv-x="1228"/><glyph d="M354 0v41q104 10 141 32.5t37 78.5v878q0 66 -15 80t-71 10l-84 -6v39l273 127q61 27 61 -33v-1095q0 -55 37 -78t141 -33v-41h-520z" glyph-name="one.tnum" horiz-adv-x="1228"/><glyph d="M150 0q0 106 54 205.5t135 171.5t175 148.5t175 142t135.5 149.5t54.5 170q0 106 -65.5 186t-188.5 80q-113 0 -182.5 -72.5t-69.5 -176.5q0 -45 15 -81t15 -57q0 -47 -27.5 -67.5t-64.5 -20.5q-55 0 -90 50.5t-35 125.5q0 139 114 245t331 106q207 0 319.5 -96.5 t112.5 -256.5q0 -113 -65.5 -203t-169 -155.5t-213 -125.5t-214 -143t-155.5 -178h534q117 0 170.5 31t87.5 119h41l-32 -168q-18 -96 6 -129h-903z" glyph-name="two.tnum" horiz-adv-x="1228"/><glyph d="M586 -20q-195 0 -325 101t-130 259q0 127 100 127q45 0 58.5 -21.5t25 -90t35.5 -128.5q72 -195 258 -194q137 0 220 96t83 256q0 145 -69.5 217t-175.5 72q-68 0 -166 -39l-21 55q195 66 268.5 121t73.5 174t-62.5 194.5t-174.5 75.5q-104 0 -159.5 -69.5t-55.5 -181.5 q0 -117 -86 -117q-102 0 -103 114q0 119 110.5 211.5t313.5 92.5q193 0 294 -80t101 -207q0 -193 -262 -283q72 8 153 -23.5t144.5 -113.5t63.5 -197q0 -180 -148.5 -300.5t-363.5 -120.5z" glyph-name="three.tnum" horiz-adv-x="1228"/><glyph d="M584 0v41q88 10 121.5 32.5t33.5 78.5v190h-585l-35 102l612 861l172 -33v-793h207v-137h-207v-190q0 -55 34 -78t124 -33v-41h-477zM258 479h481v750l-501 -703q-14 -23 -8.5 -35t28.5 -12z" glyph-name="four.tnum" horiz-adv-x="1228"/><glyph d="M586 -20q-195 0 -325 101t-130 259q0 127 100 127q45 0 58.5 -20.5t25 -90t35.5 -129.5q80 -195 256 -194q133 0 220 101.5t87 256.5q0 168 -97 289t-263 121q-190 0 -283 -142h-45l49 613h588l142 28l-21 -188h-672l-28 -371q53 59 146 95t194 36q182 0 330.5 -115.5 t148.5 -320.5q0 -195 -147.5 -325.5t-368.5 -130.5z" glyph-name="five.tnum" horiz-adv-x="1228"/><glyph d="M623 -20q-127 0 -222.5 51t-147.5 139t-76.5 193.5t-24.5 228.5q0 135 30.5 258t93 227.5t170 166t248.5 61.5q147 0 226 -68l-25 -39q-82 43 -158 43q-111 0 -193.5 -57.5t-125.5 -151.5t-63.5 -194.5t-20.5 -206.5q25 59 126 121.5t226 62.5q168 0 281.5 -114.5 t113.5 -284.5q0 -180 -124.5 -308t-333.5 -128zM639 33q129 0 193.5 107.5t64.5 248.5q0 152 -72.5 249t-197.5 97q-121 0 -206 -90t-85 -231q0 -147 83 -264t220 -117z" glyph-name="six.tnum" horiz-adv-x="1228"/><glyph d="M287 0l641 1112h-443q-113 0 -173 -23.5t-97 -105.5h-51l92 305l152 -16h655l-645 -1272h-131z" glyph-name="seven.tnum" horiz-adv-x="1228"/><glyph d="M596 -20q-215 0 -341 103t-126 269q0 238 270 334q-88 45 -138 124t-50 173q0 141 112.5 231.5t292.5 90.5q178 0 284 -88.5t106 -219.5q0 -186 -205 -276q141 -47 220 -137t79 -211q0 -168 -142.5 -280.5t-361.5 -112.5zM625 778q119 -33 181 43t62 187 q0 102 -61.5 172.5t-198.5 70.5q-119 0 -176 -62.5t-57 -152.5q0 -190 231 -254zM616 33q147 0 222 82t75 207q0 111 -65.5 174t-218.5 104l-29 6q-131 37 -225 -23.5t-94 -211.5q0 -141 87.5 -239.5t247.5 -98.5z" glyph-name="eight.tnum" horiz-adv-x="1228"/><glyph d="M608 1298q127 0 222.5 -51t147.5 -139t76.5 -193.5t24.5 -228.5q0 -135 -31.5 -258t-93 -227.5t-170 -166t-249.5 -61.5q-145 0 -226 68l27 39q80 -43 158 -43q111 0 192.5 57.5t124.5 152.5t63.5 195.5t20.5 206.5q-23 -61 -125 -123.5t-227 -62.5q-168 0 -282 114.5 t-114 286.5q0 178 125 306t336 128zM590 1245q-129 0 -193.5 -107.5t-64.5 -248.5q0 -152 72.5 -249t197.5 -97q121 0 207 90t86 233q0 145 -84 262t-221 117z" glyph-name="nine.tnum" horiz-adv-x="1228"/><glyph d="M293 -10q-109 0 -165 80t-56 186t56 185t165 79q104 0 160.5 -79t56.5 -185t-56.5 -186t-160.5 -80zM301 33q104 0 105 198q0 102 -29 174t-92 72q-109 0 -109 -196q0 -104 29.5 -176t95.5 -72z" glyph-name="zero.dnom" horiz-adv-x="581"/><glyph d="M66 0v29l12 4q14 6 17 7t13.5 7t13.5 12.5t7 16.5t4 22v316h-72v32l129 64q43 23 43 -31v-381q0 -10 2.5 -19t6.5 -15.5t8 -10.5t11 -9t10 -6t12.5 -5t11.5 -4v-29h-229z" glyph-name="one.dnom" horiz-adv-x="356"/><glyph d="M82 0q12 51 33.5 91t57.5 73t56.5 47t61.5 41q31 20 45 30.5t29.5 36t15.5 56.5q0 41 -19.5 71.5t-62.5 30.5q-33 0 -57.5 -21.5t-24.5 -62.5q0 -12 5 -32.5t1 -34.5q-41 -35 -79 -21t-38 66q0 55 51.5 102t145.5 47q88 0 137 -40t49 -105q0 -35 -12 -63.5t-39.5 -51 t-45 -34t-52.5 -31.5q-143 -72 -174 -113h209q53 0 82 43h51l-21 -96q-6 -29 -43 -29h-362z" glyph-name="two.dnom" horiz-adv-x="589"/><glyph d="M270 -10q-88 0 -143 44t-55 109q0 57 49 58q29 0 39 -12.5t13 -40t5 -35.5q29 -80 98 -80q45 0 72 33.5t27 91.5q0 72 -48 90t-100 -12l-18 36l33 13q100 37 100 106q0 86 -74 86q-55 0 -71.5 -46t-1.5 -89q-47 -20 -73 -4t-26 53q0 53 48.5 91t129.5 38 q80 0 127.5 -35.5t47.5 -87.5q0 -76 -99 -108q66 -2 101.5 -39t35.5 -90q0 -74 -62.5 -122t-154.5 -48z" glyph-name="three.dnom" horiz-adv-x="569"/><glyph d="M197 0v29q43 4 57 17t14 52v41h-217v62l252 317l70 -18v-314h76v-47h-76v-41q0 -37 16.5 -51t59.5 -18v-29h-252zM131 186h137v179z" glyph-name="four.dnom" horiz-adv-x="530"/><glyph d="M270 -8q-88 0 -143 45t-55 110q0 51 49 52q29 0 39 -11.5t13 -38t5 -34.5q29 -80 98 -80q45 0 72 34.5t27 90.5q0 61 -32 100t-83 39q-47 0 -100 -43h-60l21 256h291l37 10l-21 -98h-250l-8 -119q35 47 125 47q76 0 134 -46t58 -128q0 -86 -61.5 -136t-155.5 -50z" glyph-name="five.dnom" horiz-adv-x="559"/><glyph d="M274 -10q-104 0 -153 71.5t-49 176.5q0 117 56 199.5t165 82.5q68 0 113 -31q12 -8 12 -15t-10 -25q-14 -12 -22.5 -7.5t-36 18t-54.5 13.5q-96 0 -111 -184q37 41 109 41q76 0 125 -42t49 -122t-51.5 -128t-141.5 -48zM272 33q86 0 86 117q0 55 -24.5 95t-65.5 40 q-86 0 -86 -117q0 -55 24.5 -95t65.5 -40z" glyph-name="six.dnom" horiz-adv-x="528"/><glyph d="M135 0l256 408h-264l-55 -35l32 123h377l-235 -496h-111z" glyph-name="seven.dnom"/><glyph d="M268 -10q-86 0 -141 42t-55 109q0 100 98 125q-70 33 -70 115q0 59 47.5 99t128.5 40q78 0 124 -38t46 -95q0 -70 -65 -102q100 -45 100 -135q0 -70 -60.5 -115t-152.5 -45zM283 307q33 -10 54 16.5t21 67.5q0 88 -82 88q-76 0 -75 -82q0 -67 82 -90zM272 33q94 0 95 98 q0 88 -88 107l-21 4q-39 8 -66.5 -19.5t-27.5 -77.5q0 -47 27.5 -79.5t80.5 -32.5z" glyph-name="eight.dnom" horiz-adv-x="552"/><glyph d="M254 520q104 0 153.5 -70.5t49.5 -175.5q0 -119 -56.5 -201.5t-164.5 -82.5q-68 0 -113 30q-12 8 -12 15.5t10 25.5q14 12 23.5 7t37 -18t51.5 -13q96 0 111 184q-35 -39 -108.5 -39t-124 42t-50.5 120q0 80 52.5 128t140.5 48zM256 477q-86 0 -86 -117q0 -55 24.5 -95 t65.5 -40q86 0 86 117q0 55 -24.5 95t-65.5 40z" glyph-name="nine.dnom" horiz-adv-x="528"/><glyph d="M293 766q-109 0 -165 80t-56 186.5t56 185t165 78.5q104 0 160.5 -78.5t56.5 -185t-56.5 -186.5t-160.5 -80zM301 809q104 0 105 199q0 102 -29 173.5t-92 71.5q-109 0 -109 -196q0 -104 29.5 -176t95.5 -72z" glyph-name="zero.numr" horiz-adv-x="581"/></font>
</defs>
</svg>
